Author Topic: Odd problems with playback  (Read 1365 times)

November 01, 2011, 02:49:45 AM
Read 1365 times

Vandar

  • Newbie

  • Offline
  • *

  • 2
I have a WDTV Live and I'm having odd problems with a file.

  • It plays successfully when I put it on an ext2 formatted external USB HD connected to the WDTV
  • It recognizes the film length but only plays the audio when I use a network shared drive
  • It recognizes the film length and plays the audio when I use a media server to play the file
  • Other mp4/AVC files play fine via the network share and the media server

I can play the file on PC's no problem.  I've tried odd solutions I've seen mentioned on here before such as change the file extension to .avi but they don't make any difference.

Any suggestions (besides re-encoding it :P )?  Here's the Mediainfo:

Complete name                    : xxxxxx.mp4
Format                           : MPEG-4
Format profile                   : Base Media / Version 2
Codec ID                         : mp42
File size                        : 701 MiB
Duration                         : 1h 15mn
Overall bit rate                 : 1 300 Kbps
Encoded date                     : UTC 2008-11-19 14:06:07
Tagged date                      : UTC 2008-11-19 16:20:34
Writing application              : HandBrake 0.9.2 2008022300

Video
ID                               : 1
Format                           : AVC
Format/Info                      : Advanced Video Codec
Format profile                   : High@L5.1
Format settings, CABAC           : Yes
Format settings, ReFrames        : 3 frames
Codec ID                         : avc1
Codec ID/Info                    : Advanced Video Coding
Duration                         : 1h 15mn
Bit rate mode                    : Variable
Bit rate                         : 1 168 Kbps
Width                            : 720 pixels
Height                           : 576 pixels
Display aspect ratio             : 4:3
Frame rate mode                  : Constant
Frame rate                       : 25.000 fps
Standard                         : PAL
Resolution                       : 24 bits
Colorimetry                      : 4:2:0
Scan type                        : Progressive
Bits/(Pixel*Frame)               : 0.113
Stream size                      : 630 MiB (90%)
Writing library                  : x264 core 58 svn-736M
Encoding settings                : cabac=1 / ref=3 / deblock=1:1:1 / analyse=0x3:0x133 / me=umh / subme=7 / brdo=1 / mixed_ref=1 / me_range=16 / chroma_me=1 / trellis=1 / 8x8dct=1 / cqm=0 / deadzone=21,11 / chroma_qp_offset=0 / threads=3 / nr=0 / decimate=1 / mbaff=0 / bframes=6 / b_pyramid=1 / b_adapt=1 / b_bias=0 / direct=3 / wpredb=1 / bime=1 / keyint=250 / keyint_min=25 / scenecut=40(pre) / rc=2pass / bitrate=1168 / ratetol=1.0 / rceq='blurCplx^(1-qComp)' / qcomp=0.60 / qpmin=10 / qpmax=51 / qpstep=4 / cplxblur=20.0 / qblur=0.5 / ip_ratio=1.40 / pb_ratio=1.30
Language                         : English
Encoded date                     : UTC 2008-11-19 14:06:07
Tagged date                      : UTC 2008-11-19 16:20:34

Audio
ID                               : 2
Format                           : AAC
Format/Info                      : Advanced Audio Codec
Format version                   : Version 4
Format profile                   : LC
Format settings, SBR             : No
Codec ID                         : 40
Duration                         : 1h 15mn
Bit rate mode                    : Variable
Bit rate                         : 128 Kbps
Maximum bit rate                 : 157 Kbps
Channel(s)                       : 2 channels
Channel positions                : L R
Sampling rate                    : 48.0 KHz
Resolution                       : 16 bits
Stream size                      : 69.0 MiB (10%)
Language                         : English
Encoded date                     : UTC 2008-11-19 14:06:07
Tagged date                      : UTC 2008-11-19 16:20:34