Author Topic: Pixelated Video Playback  (Read 2551 times)

April 01, 2009, 10:12:20 PM
Read 2551 times

Soulless

  • Newbie

  • Offline
  • *

  • 1
I figure some of you probably know this better then I do.  I'm wondering why the following videos do not play correctly on my WDTV.  They just stop and get all pixelated. 

Video #1
Format                           : AVI
Format/Info                      : Audio Video Interleave
File size                        : 175 MiB
Duration                         : 23mn 25s
Overall bit rate                 : 1 047 Kbps
Writing application              : VirtualDubMod 1.5.10.1 (build 2366/release)
Writing library                  : VirtualDubMod build 2366/release

Video
Format                           : MPEG-4 Visual
Format profile                   : Streaming Video@L1
Format settings, BVOP            : Yes
Format settings, QPel            : No
Format settings, GMC             : 3 warppoints
Format settings, Matrix          : Default
Muxing mode                      : Packed bitstream
Codec ID                         : XVID
Codec ID/Hint                    : XviD
Duration                         : 23mn 25s
Bit rate                         : 909 Kbps
Width                            : 704 pixels
Height                           : 396 pixels
Display aspect ratio             : 16/9
Frame rate                       : 23.976 fps
Resolution                       : 24 bits
Colorimetry                      : 4:2:0
Scan type                        : Progressive
Bits/(Pixel*Frame)               : 0.136
Stream size                      : 152 MiB (87%)
Writing library                  : XviD 1.2.0SMP (UTC 2006-01-08)

Audio
Format                           : MPEG Audio
Format version                   : Version 1
Format profile                   : Layer 3
Codec ID                         : 55
Codec ID/Hint                    : MP3
Duration                         : 23mn 25s
Bit rate mode                    : Constant
Bit rate                         : 128 Kbps
Channel(s)                       : 2 channels
Sampling rate                    : 48.0 KHz
Resolution                       : 16 bits
Stream size                      : 21.4 MiB (12%)
Alignment                        : Aligned on interleaves
Interleave, duration             : 42 ms (1.00 video frame)
Interleave, preload duration     : 504 ms

Video #2
Format                           : AVI
Format/Info                      : Audio Video Interleave
File size                        : 171 MiB
Duration                         : 24mn 14s
Overall bit rate                 : 986 Kbps
Writing application              : VirtualDubMod 1.5.10.2 (build 2540/release)
Writing library                  : VirtualDubMod build 2540/release

Video
Format                           : MPEG-4 Visual
Format profile                   : Streaming Video@L1
Format settings, BVOP            : Yes
Format settings, QPel            : No
Format settings, GMC             : 3 warppoints
Format settings, Matrix          : Default
Codec ID                         : XVID
Codec ID/Hint                    : XviD
Duration                         : 24mn 14s
Bit rate                         : 785 Kbps
Width                            : 704 pixels
Height                           : 396 pixels
Display aspect ratio             : 16/9
Frame rate                       : 23.976 fps
Resolution                       : 24 bits
Colorimetry                      : 4:2:0
Scan type                        : Progressive
Bits/(Pixel*Frame)               : 0.117
Stream size                      : 136 MiB (80%)
Writing library                  : XviD 1.2.0SMP (UTC 2006-01-08)

Audio
Format                           : MPEG Audio
Format version                   : Version 1
Format profile                   : Layer 3
Codec ID                         : 55
Codec ID/Hint                    : MP3
Duration                         : 24mn 14s
Bit rate mode                    : Constant
Bit rate                         : 192 Kbps
Minimum bit rate                 : 192 Kbps
Channel(s)                       : 2 channels
Sampling rate                    : 48.0 KHz
Resolution                       : 16 bits
Stream size                      : 33.3 MiB (19%)
Alignment                        : Aligned on interleaves
Interleave, duration             : 42 ms (1.00 video frame)
Interleave, preload duration     : 504 ms
Writing library                  : LAME3.96r
Encoding settings                : CBR

April 11, 2009, 08:21:43 AM
Reply #1

CapZap

  • Newbie

  • Offline
  • *

  • 3
I've had a couple movies pixellate and haven't found a fix other than getting a different copy of the file.

April 11, 2009, 11:41:57 AM
Reply #2

Starstream

  • Jr. Member

  • Offline
  • **

  • 64
It could be the XviD profile you used to encode with, the WDTV may not support all the options present in XviD.

Try encoding with a different profile one that doesn't use GMC warppoints & see how that turns out.