Author Topic: Bug v1.02.07 lacking MP4 features  (Read 845 times)

May 25, 2009, 08:40:28 AM
Read 845 times

housekat

  • Newbie

  • Offline
  • *

  • 1
Most capabilities of MP4 container seems not to be supported right now:

.) no support for switching between different audio streams
.) language of audio stream is not displayed
.) no support for vobsubs/no switching between subs/language of sub is not displayed
.) no support for jumping to chapters

mediainfo output for an example mp4 container:
Code: [Select]
General
Complete name                    : V:\rips\ArmitageIII\ArmitageIII_2_DualMatrix.mp4
Format                           : MPEG-4
Format profile                   : Base Media
Codec ID                         : isom
File size                        : 1.32 GiB
Duration                         : 1h 29mn
Overal bit rate                  : 2104 Kbps
Movie name                       : ArmitageIII
Genre                            : Cartoons
Encoded date                     : UTC 2008-09-06 21:01:12
Tagged date                      : UTC 2008-09-06 21:01:12
Cover                            : Yes

Video
Format                           : AVC
Format/Info                      : Advanced Video Codec
Format profile                   : High@L4.0
Format settings, CABAC           : Yes
Format settings, ReFrames        : 16 frames
Codec ID                         : avc1
Duration                         : 1h 29mn
Bit rate mode                    : Variable
Bit rate                         : 1600 Kbps
Maximum bit rate                 : 29.8 Mbps
Width                            : 700 pixels
Height                           : 554 pixels
Display aspect ratio             : 1.382
Frame rate mode                  : Constant
Frame rate                       : 25.000 fps
Colorimetry                      : 4:2:0
Scan type                        : Progressive
Bits/(Pixel*Frame)               : 0.165
Stream size                      : 1.00 GiB (76%)
Writing library                  : x264 core 61 r965M 3d2983d
Encoding settings                : cabac=1 / ref=16 / deblock=1:1:1 / analyse=0x3:0x133 / me=umh / subme=6 / psy_rd=1.0:1.0 / brdo=1 / mixed_ref=1 / me_range=16 / chroma_me=1 / trellis=2 / 8x8dct=1 / cqm=0 / deadzone=21,11 / chroma_qp_offset=-4 / threads=6 / nr=0 / decimate=1 / mbaff=0 / bframes=16 / b_pyramid=1 / b_adapt=1 / b_bias=0 / direct=3 / wpredb=1 / bime=1 / keyint=250 / keyint_min=25 / scenecut=40(pre) / rc=2pass / bitrate=1600 / ratetol=1.0 / qcomp=1.00 / qpmin=10 / qpmax=51 / qpstep=4 / cplxblur=20.0 / qblur=0.5 / ip_ratio=1.40 / pb_ratio=1.30 / aq=2:1.20
Encoded date                     : UTC 2008-09-06 18:59:17
Tagged date                      : UTC 2008-09-06 21:02:14

Audio #1
Format                           : AAC
Format/Info                      : Advanced Audio Codec
Format version                   : Version 4
Format profile                   : LC
Format settings, SBR             : Yes
Format settings, PS              : No
Codec ID                         : 40
Duration                         : 1h 29mn
Bit rate mode                    : Variable
Bit rate                         : 164 Kbps
Maximum bit rate                 : 284 Kbps
Channel(s)                       : 6 channels
Channel positions                : Front: L C R, Rear: L R, LFE
Sampling rate                    : 48.0 KHz
Resolution                       : 16 bits
Stream size                      : 105 MiB (8%)
Language                         : German
Encoded date                     : UTC 2008-09-06 21:01:55
Tagged date                      : UTC 2008-09-06 21:02:14

Audio #2
Format                           : AAC
Format/Info                      : Advanced Audio Codec
Format version                   : Version 4
Format profile                   : LC
Format settings, SBR             : Yes
Format settings, PS              : No
Codec ID                         : 40
Duration                         : 1h 29mn
Bit rate mode                    : Variable
Bit rate                         : 166 Kbps
Maximum bit rate                 : 290 Kbps
Channel(s)                       : 6 channels
Channel positions                : Front: L C R, Rear: L R, LFE
Sampling rate                    : 48.0 KHz
Resolution                       : 16 bits
Stream size                      : 106 MiB (8%)
Language                         : English
Encoded date                     : UTC 2008-09-06 21:02:02
Tagged date                      : UTC 2008-09-06 21:02:14

Audio #3
Format                           : AAC
Format/Info                      : Advanced Audio Codec
Format version                   : Version 4
Format profile                   : LC
Format settings, SBR             : Yes
Format settings, PS              : No
Codec ID                         : 40
Duration                         : 1h 29mn
Bit rate mode                    : Variable
Bit rate                         : 165 Kbps
Maximum bit rate                 : 236 Kbps
Channel(s)                       : 6 channels
Channel positions                : Front: L C R, Rear: L R, LFE
Sampling rate                    : 48.0 KHz
Resolution                       : 16 bits
Stream size                      : 106 MiB (8%)
Language                         : Japanese
Encoded date                     : UTC 2008-09-06 21:02:07
Tagged date                      : UTC 2008-09-06 21:02:14

Text
Format                           : VobSub
Codec ID                         : subp
Codec ID/Info                    : The same subtitle format used on DVDs
Duration                         : 1h 25mn
Bit rate mode                    : Variable
Bit rate                         : 4933 bps
Stream size                      : 3.02 MiB (0%)
Language                         : German
Encoded date                     : UTC 2008-09-06 21:02:13
Tagged date                      : UTC 2008-09-06 21:02:14

Chapters
1                                : 00:00:00.000 - Chapter 1
2                                : 00:05:43.200 - Chapter 2
3                                : 00:10:39.600 - Chapter 3
4                                : 00:14:18.600 - Chapter 4
5                                : 00:18:40.200 - Chapter 5
6                                : 00:20:39.000 - Chapter 6
7                                : 00:24:22.800 - Chapter 7
8                                : 00:28:48.000 - Chapter 8
9                                : 00:34:39.600 - Chapter 9
10                               : 00:39:49.200 - Chapter 10
11                               : 00:44:15.600 - Chapter 11
12                               : 00:49:52.200 - Chapter 12
13                               : 00:57:58.200 - Chapter 13
14                               : 01:03:12.600 - Chapter 14
15                               : 01:08:45.600 - Chapter 15
16                               : 01:14:52.200 - Chapter 16
17                               : 01:18:43.800 - Chapter 17
18                               : 01:22:09.600 - Chapter 18
19                               : 01:25:04.800 - Chapter 19
20                               : 01:26:11.400 - Chapter 20

May 27, 2009, 06:04:16 AM
Reply #1

bobosquishy

  • Full Member

  • Offline
  • ***

  • 202
You probably don't want to accept this, but the main focus of WDTV seems to be the mkv container.  You might just want to change the container of your files from mp4 to mkv.

Sorry.   :-[
I reserve the right to ignore you for any reason.