Author Topic: Will a WD TV play WMV files?  (Read 2741 times)

May 27, 2011, 06:39:34 AM
Read 2741 times

mholl

  • Newbie

  • Offline
  • *

  • 1
I have previously made DVD's of downloaded files which are commonly
AVI or WMV using ConvertXto DVD.   New HD TV seems to provide an
opportunity to view files at downloaded resolutions without conversion.

Having spent some days considering specifications and reviews I absolutely
do not know if WDTV or any other such is likely to play the files.   Using such
as AVS4You is not favourite as it is clear that converting large video files is very
slow and likely to need new superfast computer.

Looking at some WMVs from a variety of sources I find that they are like the
following (bit rate varies)

Will a new WD TV play the following.  If only some products will, which are they?



General
Format                           : Windows Media
File size                        : 245 MiB
Duration                         : 4mn 9s
Overall bit rate                 : 8 226 Kbps
Maximum Overall bit rate         : 8 198 Kbps
Encoded date                     : UTC 2009-11-19 11:52:42.000
Writing application              : Flip4Mac WMV Export Component for QuickTime (Mac) 2301

Video
ID                               : 2
Format                           : VC-1
Format profile                   : MP
Codec ID                         : WMV3
Codec ID/Info                    : Windows Media Video 9
Codec ID/Hint                    : WMV3
Description of the codec         : Windows Media Video V9 - 1280 x 720, 25.00 fps, Q=90 (VBR)
Duration                         : 4mn 9s
Bit rate                         : 8 134 Kbps
Width                            : 1 280 pixels
Height                           : 720 pixels
Display aspect ratio             : 16:9
Frame rate                       : 25.000 fps
Bit depth                        : 8 bits
Scan type                        : Progressive
Compression mode                 : Lossy
Bits/(Pixel*Frame)               : 0.353
Stream size                      : 242 MiB (99%)
Language                         : English (US)

Audio
ID                               : 1
Format                           : WMA
Format version                   : Version 2
Codec ID                         : 161
Codec ID/Info                    : Windows Media Audio
Description of the codec         : Windows Media Audio V9 Standard - 64 kbps, 44 kHz, 16 bit, Stereo (VBR)
Duration                         : 4mn 9s
Bit rate mode                    : Variable
Bit rate                         : 64.0 Kbps
Channel(s)                       : 2 channels
Sampling rate                    : 44.1 KHz
Bit depth                        : 16 bits
Stream size                      : 1.90 MiB (1%)
Language                         : English (US)