Poll

i have not sound, can help me

tv
0 (0%)
wdtv
1 (100%)
coluns
0 (0%)

Total Members Voted: 1

Voting closed: March 20, 2011, 09:44:27 AM

Author Topic: sound problems  (Read 2278 times)

March 15, 2011, 09:44:27 AM
Read 2278 times

zetocre

  • Newbie

  • Offline
  • *

  • 1
i have a wdtv with firmware 1.03 and with files like that , i dont listen sound
the file caracteristics
General
Complete name                    : I:\Varios\M-R\ 720p\Robin Hood.mkv
Format                           : Matroska
File size                        : 6.56 GiB
Duration                         : 2h 35mn
Overall bit rate                 : 6 025 Kbps
Writing application              : x264.exe
Writing library                  : mkv2rls v1.3 (date: 2010 aug 28)

Video
ID                               : 1
Format                           : AVC
Format/Info                      : Advanced Video Codec
Format profile                   : High@L4.1
Format settings, CABAC           : Yes
Format settings, ReFrames        : 5 frames
Format settings, GOP             : M=4, N=32
Codec ID                         : V_MPEG4/ISO/AVC
Duration                         : 2h 35mn
Bit rate                         : 4 515 Kbps
Width                            : 1 280 pixels
Height                           : 536 pixels
Display aspect ratio             : 2.35:1
Frame rate                       : 23.976 fps
Color space                      : YUV
Chroma subsampling               : 4:2:0
Bit depth                        : 8 bits
Scan type                        : Progressive
Bits/(Pixel*Frame)               : 0.274
Stream size                      : 4.78 GiB (73%)
Writing library                  : x264 core 104 r1713 c276662
Encoding settings                : cabac=1 / ref=5 / deblock=1:0:0 / analyse=0x3:0x133 / me=umh / subme=7 / psy=1 / psy_rd=1.00:0.00 / mixed_ref=1 / me_range=16 / chroma_me=1 / trellis=1 / 8x8dct=1 / cqm=0 / deadzone=21,11 / fast_pskip=0 / chroma_qp_offset=-2 / threads=12 / sliced_threads=0 / nr=0 / decimate=1 / interlaced=0 / constrained_intra=0 / bframes=3 / b_pyramid=2 / b_adapt=1 / b_bias=0 / direct=3 / weightb=1 / open_gop=0 / weightp=2 / keyint=240 / keyint_min=24 / scenecut=40 / intra_refresh=0 / rc_lookahead=40 / rc=2pass / mbtree=1 / bitrate=4515 / ratetol=1.0 / qcomp=0.60 / qpmin=10 / qpmax=51 / qpstep=4 / cplxblur=20.0 / qblur=0.5 / ip_ratio=1.40 / aq=1:1.00
Language                         : English

Audio
ID                               : 2
Format                           : DTS
Format/Info                      : Digital Theater Systems
Codec ID                         : A_DTS
Duration                         : 2h 35mn
Bit rate mode                    : Constant
Bit rate                         : 1 510 Kbps
Channel(s)                       : 6 channels
Channel positions                : Front: L C R, Side: L R, LFE
Sampling rate                    : 48.0 KHz
Bit depth                        : 24 bits
Compression mode                 : Lossy
Stream size                      : 1.64 GiB (25%)
Language                         : English

Text #1
ID                               : 3
Format                           : UTF-8
Codec ID                         : S_TEXT/UTF8
Codec ID/Info                    : UTF-8 Plain Text
Language                         : English

Text #2
ID                               : 4
Format                           : UTF-8
Codec ID                         : S_TEXT/UTF8
Codec ID/Info                    : UTF-8 Plain Text
Language                         : French

Text #3
ID                               : 5
Format                           : UTF-8
Codec ID                         : S_TEXT/UTF8
Codec ID/Info                    : UTF-8 Plain Text
Language                         : Spanish

Menu
00:00:00.000                     : en:00:00:00.000
00:12:05.975                     : en:00:12:05.975
00:18:27.440                     : en:00:18:27.440
00:25:11.552                     : en:00:25:11.552
00:33:31.426                     : en:00:33:31.426
00:38:36.981                     : en:00:38:36.981
00:48:42.586                     : en:00:48:42.586
00:57:11.887                     : en:00:57:11.887
01:04:14.309                     : en:01:04:14.309
01:10:41.612                     : en:01:10:41.612
01:23:24.624                     : en:01:23:24.624
01:32:17.115                     : en:01:32:17.115
01:40:30.149                     : en:01:40:30.149
01:49:15.882                     : en:01:49:15.882
01:56:06.418                     : en:01:56:06.418
02:02:29.091                     : en:02:02:29.091
02:09:20.669                     : en:02:09:20.669
02:18:21.418                     : en:02:18:21.418
02:22:48.685                     : en:02:22:48.685
02:27:08.611                     : en:02:27:08.611


March 21, 2011, 04:05:47 AM
Reply #1

Pangadaywalker

  • Sr. Member

  • Offline
  • ****

  • 349
Do you have a receiver to listen the sound?

What is the receiver model and brand?
My set: