Author Topic: Video help  (Read 1394 times)

December 18, 2010, 11:31:48 PM
Read 1394 times

Spoilsofvictory

  • Newbie

  • Offline
  • *

  • 3
I have a movie file with the following specs, and I'm wondering about two things and I'm not knowledgeable enough to answer these questions myself: 

1) what is it about this that makes it unplayable on the WDTV Live; and
2) Is there any way to convert it without losing quality? (I've tried a couple times but with disastrous results)

Format                           : MPEG-4
Format profile                   : Base Media
Codec ID                         : isom
File size                        : 2.90 GiB
Duration                         : 3h 26mn
Overall bit rate                 : 2 005 Kbps
Encoded date                     : UTC 2010-09-24 09:55:41
Tagged date                      : UTC 2010-09-24 09:55:41

Video
ID                               : 1
Format                           : AVC
Format/Info                      : Advanced Video Codec
Format profile                   : High@L4.1
Format settings, CABAC           : Yes
Format settings, ReFrames        : 3 frames
Codec ID                         : avc1
Codec ID/Info                    : Advanced Video Coding
Duration                         : 3h 26mn
Bit rate mode                    : Variable
Bit rate                         : 1 682 Kbps
Maximum bit rate                 : 9 369 Kbps
Width                            : 952 pixels
Height                           : 720 pixels
Display aspect ratio             : 4:3
Frame rate mode                  : Constant
Frame rate                       : 23.976 fps
Color space                      : YUV
Chroma subsampling               : 4:2:0
Bit depth                        : 8 bits
Scan type                        : Progressive
Bits/(Pixel*Frame)               : 0.102
Stream size                      : 2.43 GiB (84%)
Title                            : Imported with GPAC 0.4.6-DEV (internal rev. 5)
Writing library                  : x264 core 98 r1649 c54c47d
Encoding settings                : cabac=1 / ref=3 / deblock=1:0:0 / analyse=0x3:0x113 / me=hex / subme=7 / psy=1 / psy_rd=1.00:0.00 / mixed_ref=1 / me_range=16 / chroma_me=1 / trellis=0 / 8x8dct=1 / cqm=0 / deadzone=21,11 / fast_pskip=1 / chroma_qp_offset=-2 / threads=6 / sliced_threads=0 / nr=0 / decimate=1 / interlaced=0 / constrained_intra=0 / bframes=3 / b_pyramid=0 / b_adapt=1 / b_bias=0 / direct=1 / weightb=1 / weightp=2 / keyint=250 / keyint_min=25 / scenecut=40 / intra_refresh=0 / rc_lookahead=40 / rc=2pass / mbtree=1 / bitrate=1682 / ratetol=1.0 / qcomp=0.60 / qpmin=10 / qpmax=51 / qpstep=4 / cplxblur=20.0 / qblur=0.5 / vbv_maxrate=31250 / vbv_bufsize=31250 / ip_ratio=1.40 / aq=1:1.00 / nal_hrd=none
Encoded date                     : UTC 2010-09-24 09:55:41
Tagged date                      : UTC 2010-09-24 09:58:11

Audio
ID                               : 2
Format                           : AAC
Format/Info                      : Advanced Audio Codec
Format version                   : Version 4
Format profile                   : LC
Format settings, SBR             : No
Codec ID                         : 40
Duration                         : 3h 26mn
Bit rate mode                    : Variable
Bit rate                         : 320 Kbps
Maximum bit rate                 : 330 Kbps
Channel(s)                       : 6 channels
Channel positions                : Front: L C R, Side: L R, LFE
Sampling rate                    : 48.0 KHz
Stream size                      : 473 MiB (16%)
Title                            : AAC 5.1 Channels
Language                         : Japanese
Encoded date                     : UTC 2010-09-24 09:57:45
Tagged date                      : UTC 2010-09-24 09:58:11

Thanks for any help!!

December 31, 2010, 05:04:01 PM
Reply #1

twisty

  • Full Member

  • Offline
  • ***

  • 125
G'day spoilsofvictory,

It looks like no one knows :-(  What's the file extension? Does it play at all? Have you tried converting it?
42" Sony & 32" Teac. Gigabit Network + NetComm NP210 Ethernet over power.  4TB WD ShareSpace NAS.  WDLXTV 0.5.8.1.  MSheet 2.1.1.
Noob WDTV Video Conversion Basics Tutorial http://wdtvforum.com/main/index.php?topic=3314.0

December 31, 2010, 11:03:22 PM
Reply #2

RavRob

  • DeSpammer
  • Hero Member

  • Offline
  • ****

  • 1728
Try converting with Handbrake to MKV format.  Should work better.  What firmware version do you have?  It might work with a newer version.
Windows 7 Ultimate with SP1
WDTV Live
1.02.21 WDLXTV 0.5.1.4 (Beta)
Linksys - WUSB600N USB Adapter
DLink - Dir-655 Router
Atheros - AR8131 PCI-E Gigabit Ethernet Controller (NDIS 6.20)
XBMC - The Future of Television