Author Topic: Just got a Live Hub 1tb and getting jerky playback  (Read 1464 times)

December 10, 2010, 12:16:20 AM
Read 1464 times

low-def

  • Newbie

  • Offline
  • *

  • 1
Hi all,

First post here, as the above title says really.

I have loaded on about 25 films to the internal hdd, 99% of which are brrip mp4 videos.

I have only been using it a few days but now started to notice some jerky playback on some video.

This is the info from mediainfo:


General
Complete name                    :BRRip.720p.H264-ARiA.mp4
Format                           : MPEG-4
Format profile                   : Base Media
Codec ID                         : isom
File size                        : 2.00 GiB
Duration                         : 2h 37mn
Overall bit rate                 : 1 810 Kbps
Writing application              : Lavf52.34.0

Video
ID                               : 1
Format                           : AVC
Format/Info                      : Advanced Video Codec
Format profile                   : Main@L4.0
Format settings, CABAC           : No
Format settings, ReFrames        : 2 frames
Codec ID                         : avc1
Codec ID/Info                    : Advanced Video Coding
Duration                         : 2h 37mn
Bit rate mode                    : Variable
Bit rate                         : 1 486 Kbps
Width                            : 1 280 pixels
Height                           : 536 pixels
Display aspect ratio             : 2.35:1
Frame rate mode                  : Constant
Frame rate                       : 23.976 fps
Color space                      : YUV
Chroma subsampling               : 4:2:0
Bit depth                        : 8 bits
Scan type                        : Progressive
Bits/(Pixel*Frame)               : 0.090
Stream size                      : 1.64 GiB (82%)

Audio
ID                               : 2
Format                           : AAC
Format/Info                      : Advanced Audio Codec
Format version                   : Version 4
Format profile                   : LC
Codec ID                         : 40
Duration                         : 2h 37mn
Bit rate mode                    : Variable
Bit rate                         : 320 Kbps
Channel(s)                       : 6 channels
Channel positions                : Front: L C R, Side: L R, LFE
Sampling rate                    : 48.0 KHz
Compression mode                 : Lossy
Stream size                      : 361 MiB (18%)

Any ideas anyone?