Author Topic: .xVid with Mp3 audio skips HORRIBLY  (Read 1454 times)

August 24, 2010, 10:37:53 AM
Read 1454 times

vegeta67357

  • Newbie

  • Offline
  • *

  • 3
I'm trying to play the below file and keep experiencing stuttering of the video. I try playing the file on my computer and there are no issues...I'll attach a MediaInfo of the file I'm having problems with in the hopes that someone has suggestions. I'm using a WDTV HD Media Player Gen2 without networking. The whole series is encoded like this...and the whole series has the same issue.Any help would be greatly appreciated.

Complete name                    : D:\Moview\Justice.League.Complete.Series.DVDRip.XviD.MP3\Justice.League.2001.DVDRip.XviD.MP3\Justice League - 1.01 - Secret Origins (1).avi
Format                           : AVI
Format/Info                      : Audio Video Interleave
File size                        : 176 MiB
Duration                         : 21mn 23s
Overall bit rate                 : 1 149 Kbps
Writing application              : VirtualDubMod 1.5.10.2 (build 2540/release)
Writing library                  : VirtualDubMod build 2540/release

Video
ID                               : 0
Format                           : MPEG-4 Visual
Format profile                   : Advanced Simple@L5
Format settings, BVOP            : Yes
Format settings, QPel            : Yes
Format settings, GMC             : 3 warppoints
Format settings, Matrix          : Default (H.263)
Muxing mode                      : Packed bitstream
Codec ID                         : XVID
Codec ID/Hint                    : XviD
Duration                         : 21mn 23s
Bit rate                         : 1 011 Kbps
Width                            : 512 pixels
Height                           : 384 pixels
Display aspect ratio             : 4:3
Frame rate                       : 23.976 fps
Color space                      : YUV
Chroma subsampling               : 4:2:0
Bit depth                        : 8 bits
Scan type                        : Interlaced
Scan order                       : Bottom Field First
Bits/(Pixel*Frame)               : 0.214
Stream size                      : 155 MiB (88%)
Writing library                  : XviD 1.1.2 (UTC 2006-11-01)

Audio
ID                               : 1
Format                           : MPEG Audio
Format version                   : Version 1
Format profile                   : Layer 3
Mode                             : Joint stereo
Mode extension                   : MS Stereo
Codec ID                         : 55
Codec ID/Hint                    : MP3
Duration                         : 21mn 23s
Bit rate mode                    : Constant
Bit rate                         : 128 Kbps
Channel(s)                       : 2 channels
Sampling rate                    : 48.0 KHz
Stream size                      : 19.6 MiB (11%)
Alignment                        : Aligned on interleaves
Interleave, duration             : 42 ms (1.00 video frame)
Interleave, preload duration     : 504 ms


August 24, 2010, 11:42:33 AM
Reply #1

Ron[NL]

  • Sr. Member

  • Offline
  • ****

  • 425
    • WDTV Movie Sheet Generator
It's 99.999999% certain that it's caused by these 3 warppoints.
WDTV's don't like that. Mentioned couple of times on the forum already.

See also : http://bit.ly/a75yzH
WDLXTV 0.5.8.1 + Showcase v2 OSD Mod

Philips 40PFL8605H, Sitecom WL-351

Trust HU-5440 USB Hub
WDTV MSG 1.7.0,  TheTvDBv3.0 TVSheetGenerator - rev 5.4.1

August 24, 2010, 06:43:15 PM
Reply #2

vegeta67357

  • Newbie

  • Offline
  • *

  • 3
So I'll need to convert ALL of them..great. Any suggestions for freeware to do this quickly and easily?

August 24, 2010, 06:48:38 PM
Reply #3

vegeta67357

  • Newbie

  • Offline
  • *

  • 3
Also, I'm fairly new to this...would also be wide open to using a custom firmware to address this, if it's just a software issue and has no interactions with the hardware of the WDTV.

August 25, 2010, 07:35:05 AM
Reply #4

Ron[NL]

  • Sr. Member

  • Offline
  • ****

  • 425
    • WDTV Movie Sheet Generator
So I'll need to convert ALL of them..great. Any suggestions for freeware to do this quickly and easily?

I don't have avi's so never ran into this before. I'll bet there is freeware around that can do this, so my advise : use google.
WDLXTV 0.5.8.1 + Showcase v2 OSD Mod

Philips 40PFL8605H, Sitecom WL-351

Trust HU-5440 USB Hub
WDTV MSG 1.7.0,  TheTvDBv3.0 TVSheetGenerator - rev 5.4.1