Author Topic: WDTV LIVE Firmware Update 1.03.35 New ***  (Read 91469 times)

August 11, 2010, 07:26:09 PM
Reply #30

snarkle

  • Newbie

  • Offline
  • *

  • 17
There is a new beta firmware available for the live.

Beta v1.03.38
Resolved issues:

HDMI handshake issues introduced in 1.03.35V

http://www.wdc.com/wdtvlive_limitedpublicbetarelease/

August 11, 2010, 08:45:46 PM
Reply #31

megaup987

  • Newbie

  • Offline
  • *

  • 4
1080p24 still doesn't work on 1.03.38V.

August 15, 2010, 08:03:45 AM
Reply #32

Terrarist

  • Newbie

  • Offline
  • *

  • 1
Format                           : MPEG-4
Format profile                   : Base Media
Codec ID                         : isom
File size                        : 53.7 MiB
Duration                         : 24mn 19s
Overall bit rate                 : 309 Kbps
Encoded date                     : UTC 2010-08-06 18:26:35
Tagged date                      : UTC 2010-08-06 18:26:35

Video
ID                               : 1
Format                           : AVC
Format/Info                      : Advanced Video Codec
Format profile                   : High@L2.1
Format settings, CABAC           : Yes
Format settings, ReFrames        : 5 frames
Codec ID                         : avc1
Codec ID/Info                    : Advanced Video Coding
Duration                         : 24mn 19s
Bit rate mode                    : Variable
Bit rate                         : 275 Kbps
Maximum bit rate                 : 1 730 Kbps
Width                            : 512 pixels
Height                           : 288 pixels
Display aspect ratio             : 16:9
Frame rate mode                  : Constant
Frame rate                       : 23.976 fps
Color space                      : YUV
Chroma subsampling               : 4:2:0
Bit depth                        : 8 bits
Scan type                        : Progressive
Bits/(Pixel*Frame)               : 0.078
Stream size                      : 47.6 MiB (89%)
Title                            : Imported with GPAC 0.4.6-DEV (build 1)
Writing library                  : x264 core 80 r1376M 3feaec2
Encoding settings                : cabac=1 / ref=5 / deblock=1:1:1 / analyse=0x3:0x113 / me=hex / subme=7 / psy=1 / psy_rd=1.0:0.0 / mixed_ref=1 / me_range=16 / chroma_me=1 / trellis=2 / 8x8dct=1 / cqm=0 / deadzone=21,11 / fast_pskip=1 / chroma_qp_offset=-2 / threads=1 / sliced_threads=0 / nr=0 / decimate=1 / mbaff=0 / constrained_intra=0 / bframes=16 / b_pyramid=2 / b_adapt=1 / b_bias=0 / direct=3 / wpredb=0 / wpredp=2 / keyint=250 / keyint_min=25 / scenecut=40 / rc_lookahead=40 / rc=2pass / mbtree=1 / bitrate=275 / ratetol=1.0 / qcomp=0.60 / qpmin=10 / qpmax=51 / qpstep=4 / cplxblur=20.0 / qblur=0.5 / ip_ratio=1.40 / aq=1:1.00
Encoded date                     : UTC 2010-08-06 18:26:35
Tagged date                      : UTC 2010-08-06 18:26:43

Audio
ID                               : 2
Format                           : AAC
Format/Info                      : Advanced Audio Codec
Format version                   : Version 4
Format profile                   : LC
Format settings, SBR             : Yes
Format settings, PS              : Yes
Codec ID                         : 40
Duration                         : 24mn 19s
Bit rate mode                    : Variable
Bit rate                         : 32.3 Kbps
Maximum bit rate                 : 36.6 Kbps
Channel(s)                       : 2 channels
Channel positions                : Front: L R
Sampling rate                    : 44.1 KHz
Stream size                      : 5.62 MiB (10%)
Encoded date                     : UTC 2010-08-06 18:26:40
Tagged date                      : UTC 2010-08-06 18:26:43

MP4 sound is choppy.  Not un-watchable / un-understandable but noticeable.

August 20, 2010, 11:58:06 AM
Reply #33

gizbug

  • Newbie

  • Offline
  • *

  • 14
Does this work on the WDTV Live Plus? Just bought one, and the stock firmware is 1.03.29_B

Dont even see that listed on their main site.

August 25, 2010, 07:53:13 AM
Reply #34

sonic2385

  • Newbie

  • Offline
  • *

  • 27
Is there an official release date yet?

September 01, 2010, 01:35:09 PM
Reply #35

Dominik82GER

  • Newbie

  • Offline
  • *

  • 1
Hello!

I have a question, my all german dvds iso is in the dvd menu english.

how change the dvd menu in german?

sorry for my bad english.

cya


September 03, 2010, 07:45:07 PM
Reply #36

spiktsu

  • Newbie

  • Offline
  • *

  • 1
Hi I was wondering if one of you... whoever's got the files for the upgrade... would share it...
On MegaUpload.com ....Cant download from WD anymore... thanx..

Spiktsu

September 05, 2010, 05:36:46 AM
Reply #37

dinje

  • Newbie

  • Offline
  • *

  • 8
Is networking ok on this vesion? I can only get media share working on the last full release

September 07, 2010, 06:23:56 AM
Reply #38

gizbug

  • Newbie

  • Offline
  • *

  • 14

Anyone know if this works on the Live Plus?

September 07, 2010, 01:28:10 PM
Reply #39

schnoid

  • Full Member

  • Offline
  • ***

  • 122

Anyone know if this works on the Live Plus?

I may be wrong, but from what I've read it seems that The WD TV Live Plus already has all the features of this latest firmware. WD released it after all us WDTV Live owners complained that we were left in the gutter because of the new hardware that was released.

September 11, 2010, 10:57:28 PM
Reply #40

beckmaster

  • Newbie

  • Offline
  • *

  • 6
Aside from the HDMI handshaking issues & choppy playback issues which others have already mentioned, there are two additional MAJOR issues/bugs that need to be fixed before a new update is released to the public.

This one is starting to become an issue as most new MKV files are being created with the new version of MKVMERGE which has the "header_removal_compression" setting turned on by DEFAULT.

BUG: "no audio if mkv made using new mkvmerge 4.1.0 or newer"
http://wdtvforum.com/main/index.php?topic=6620.0

This one has been present for a lot of users for a LONG time. 6 months. Without any fix for this on the horizon, it's likely to cause a lot of owners to be forced to return their players before the warranty expires.
BUG v1.01.11 - Must power cycle to play video
http://wdtvforum.com/main/index.php?topic=3734.0

4th

September 14, 2010, 03:37:22 AM
Reply #41

Ruler18

  • Newbie

  • Offline
  • *

  • 1
Hi all,
I have a problem with my WDTV live (1.03.38). I want that audio just comes out of the optical output and not over HDMI as well. I configured in WDTV settings "digital audio without HDMI audi output" but it doens't work. I have to mute my TV. Any idea ?

Mario

September 14, 2010, 02:06:44 PM
Reply #42

spazhead

  • Newbie

  • Offline
  • *

  • 7
Does anyone have this file they could share?

Thanks


There is a new beta firmware available for the live.

Beta v1.03.38
Resolved issues:

HDMI handshake issues introduced in 1.03.35V

http://www.wdc.com/wdtvlive_limitedpublicbetarelease/

September 14, 2010, 02:23:55 PM
Reply #43

spazhead

  • Newbie

  • Offline
  • *

  • 7
Does anyone have this file they could share?

Thanks


Nevermind, found the direct link.

http://download.wdc.com/wdtv/wdtvlive_1.03.38_V.zip


There is a new beta firmware available for the live.

Beta v1.03.38
Resolved issues:

HDMI handshake issues introduced in 1.03.35V

http://www.wdc.com/wdtvlive_limitedpublicbetarelease/

September 15, 2010, 05:50:25 AM
Reply #44

gab73

  • Newbie

  • Offline
  • *

  • 20

Using 1.03.38V since yesterday. Screen stayed black on my Sony Bravia z4500 (via HDME) after the firmware update so I connected through composite to get a picture. I realised I had to switch from 12bit colors to 8bit to get the HDME connection working again. So, I don't know if it's my tv set or the HDME handshake or the 12bit color mode that is not properly working - I hope this is helping the wdtv crew or somebody in any way.