Author Topic: BUG 1.02.21 MP4 problem  (Read 982 times)

June 27, 2010, 11:08:31 AM
Read 982 times

veda2810

  • Newbie

  • Offline
  • *

  • 6
these files wont play


Complete name : G:\MOVIES\English\Casino.mp4
Format : MPEG-4
Format profile : Base Media
Codec ID : isom
File size : 2.10 GiB
Duration : 2h 58mn
Overall bit rate : 1 686 Kbps
Encoded date : UTC 2010-01-17 09:07:09
Tagged date : UTC 2010-01-17 09:07:09
Writing application : Yamb 2.1.0.0 [http://yamb.unite-video.com]

Video
ID : 1
Format : AVC
Format/Info : Advanced Video Codec
Format profile : High@L4.1
Format settings, CABAC : Yes
Format settings, ReFrames : 4 frames
Codec ID : avc1
Codec ID/Info : Advanced Video Coding
Duration : 2h 58mn
Bit rate mode : Variable
Bit rate : 1 376 Kbps
Maximum bit rate : 4 357 Kbps
Width : 1 280 pixels
Height : 544 pixels
Display aspect ratio : 2.35:1
Frame rate mode : Constant
Frame rate : 23.976 fps
Color space : YUV
Chroma subsampling : 4:2:0
Bit depth : 8 bits
Scan type : Progressive
Bits/(Pixel*Frame) : 0.082
Stream size : 1.71 GiB (82%)
Writing library : x264 core 67 r1145bm d2e1e1c
Encoding settings : cabac=1 / ref=4 / deblock=1:-3:0 / analyse=0x3:0x133 / me=umh / subme=7 / psy_rd=0.0:0.0 / mixed_ref=1 / me_range=32 / chroma_me=1 / trellis=2 / 8x8dct=1 / cqm=2 / deadzone=21,11 / chroma_qp_offset=0 / threads=2 / thread_queue=2 / nr=0 / decimate=1 / mbaff=0 / bframes=3 / b_pyramid=1 / b_adapt=2 / b_bias=0 / direct=3 / wpredb=1 / keyint=250 / keyint_min=25 / scenecut=40 / rc=2pass / bitrate=1376 / ratetol=1.0 / qcomp=0.60 / qpmin=10 / qpmax=51 / qpstep=4 / cplxblur=20.0 / qblur=0.5 / ip_ratio=1.40 / pb_ratio=1.30 / aq=1:1.00
Encoded date : UTC 2010-01-17 09:07:09
Tagged date : UTC 2010-01-17 09:12:12

Audio
ID : 2
Format : AAC
Format/Info : Advanced Audio Codec
Format version : Version 4
Format profile : LC
Format settings, SBR : No
Codec ID : 40
Duration : 2h 58mn
Bit rate mode : Variable
Bit rate : 306 Kbps
Maximum bit rate : 391 Kbps
Channel(s) : 6 channels
Channel positions : Front: L C R, Side: L R, LFE
Sampling rate : 48.0 KHz
Stream size : 390 MiB (18%)
Encoded date : UTC 2010-01-17 09:10:52
Tagged date : UTC 2010-01-17 09:12:12




AN THIS ONE



General
Complete name : G:\MOVIES\English\Troy (Director's Cut).mp4
Format : MPEG-4
Format profile : Base Media
Codec ID : isom
File size : 3.91 GiB
Duration : 3h 16mn
Overall bit rate : 2 856 Kbps
Encoded date : UTC 2009-02-27 06:15:40
Tagged date : UTC 2009-02-27 06:15:40

Video
ID : 1
Format : AVC
Format/Info : Advanced Video Codec
Format profile : High@L4.0
Format settings, CABAC : Yes
Format settings, ReFrames : 3 frames
Codec ID : avc1
Codec ID/Info : Advanced Video Coding
Duration : 3h 16mn
Bit rate mode : Variable
Bit rate : 2 590 Kbps
Maximum bit rate : 7 791 Kbps
Width : 1 920 pixels
Height : 1 080 pixels
Display aspect ratio : 16:9
Frame rate mode : Constant
Frame rate : 23.976 fps
Color space : YUV
Chroma subsampling : 4:2:0
Bit depth : 8 bits
Scan type : Progressive
Bits/(Pixel*Frame) : 0.052
Stream size : 3.55 GiB (91%)
Writing library : x264 core 65 r1066M 045ae40
Encoding settings : cabac=1 / ref=3 / deblock=1:0:0 / analyse=0x3:0x133 / me=umh / subme=7 / psy_rd=1.0:0.0 / mixed_ref=1 / me_range=16 / chroma_me=1 / trellis=1 / 8x8dct=1 / cqm=0 / deadzone=21,11 / chroma_qp_offset=-2 / threads=6 / nr=0 / decimate=1 / mbaff=0 / bframes=3 / b_pyramid=0 / b_adapt=1 / b_bias=0 / direct=3 / wpredb=1 / keyint=250 / keyint_min=25 / scenecut=40(pre) / rc=2pass / bitrate=2590 / ratetol=1.0 / qcomp=0.60 / qpmin=10 / qpmax=51 / qpstep=4 / cplxblur=20.0 / qblur=0.5 / vbv_maxrate=25000 / vbv_bufsize=25000 / ip_ratio=1.40 / pb_ratio=1.30 / aq=1:1.00
Encoded date : UTC 2009-02-27 06:15:40
Tagged date : UTC 2009-02-27 06:18:09

Audio
ID : 2
Format : AAC
Format/Info : Advanced Audio Codec
Format version : Version 4
Format profile : LC
Format settings, SBR : No
Codec ID : 40
Duration : 3h 16mn
Bit rate mode : Variable
Bit rate : 264.6 Kbps
Maximum bit rate : 278 Kbps
Channel(s) : 6 channels
Channel positions : Front: L C R, Side: L R, LFE
Sampling rate : 48.0 KHz
Stream size : 364 MiB (9%)
Encoded date : UTC 2009-02-27 06:17:52
Tagged date : UTC 2009-02-27 06:18:09

What should i do ???

please help .. ??? ???

it says unsupported type check user manual
please do help me regarding this thanks ..