Author Topic: Bug v1.02.06 mkv loses audio sync when fw or rw  (Read 1337 times)

April 19, 2009, 09:40:24 AM
Read 1337 times

razuraw

  • Newbie

  • Offline
  • *

  • 4
i have a few mkv files that loses audio sync after i fast foward them, here are media info for them.

Quote
Complete name                    : E:\anime\Full_Metal_Panic 03.mkv
Format                           : Matroska
File size                        : 289 MiB
Duration                         : 23mn 37s
Overall bit rate                 : 1 713 Kbps
Movie name                       : [KAA] Full Metal Panic: The Second Raid - 03
Encoded date                     : UTC 2005-11-13 16:51:26
Writing application              : mkvmerge v1.5.6 ('Breathe me') built on Sep  7 2005 18:18:22
Writing library                  : libebml v0.7.5 + libmatroska v0.7.7
Cover                            : Yes / Yes / Yes / Yes / Yes / Yes / Yes / Yes / Yes / Yes / Yes / Yes / Yes / Yes / Yes / Yes / Yes / Yes / Yes / Yes / Yes / Yes

Video
ID                               : 1
Format                           : AVC
Format/Info                      : Advanced Video Codec
Format profile                   : High@L4.0
Format settings, CABAC           : Yes
Format settings, ReFrames        : 16 frames
Muxing mode                      : Container profile=Unknown@4.0
Codec ID                         : V_MPEG4/ISO/AVC
Duration                         : 23mn 35s
Bit rate                         : 1 230 Kbps
Width                            : 704 pixels
Height                           : 480 pixels
Display aspect ratio             : 16/9
Frame rate                       : 23.976 fps
Original frame rate              : 14.985 fps
Resolution                       : 24 bits
Colorimetry                      : 4:2:0
Scan type                        : Progressive
Bits/(Pixel*Frame)               : 0.152
Stream size                      : 208 MiB (72%)
Title                            : [KAA] Full Metal Panic: The Second Raid - 03
Writing library                  : x264 core 40 svn-367M

Audio
ID                               : 2
Format                           : AC-3
Format/Info                      : Audio Coding 3
Codec ID                         : A_AC3
Duration                         : 23mn 37s
Bit rate mode                    : Constant
Bit rate                         : 448 Kbps
Channel(s)                       : 6 channels
Channel positions                : Front: L C R, Surround: L R, LFE
Sampling rate                    : 48.0 KHz
Stream size                      : 75.7 MiB (26%)
Title                            : Japanese Audio (5.1ch AC3)
Language                         : Japanese

Text
ID                               : 3
Format                           : ASS
Codec ID                         : S_TEXT/ASS
Codec ID/Info                    : Advanced Sub Station Alpha
Title                            : English Subs (ASS)
Language                         : English

Menu
00:00:00.000                     : en:Chapter 6
00:01:29.933                     : en:Chapter 7
00:09:37.467                     : en:Chapter 8
00:21:45.667                     : en:Chapter 9
00:23:15.600                     : en:Chapter 10


Quote
Complete name                    : E:\anime\voices_of_a_distant.mkv
Format                           : Matroska
File size                        : 520 MiB
Duration                         : 24mn 21s
Overall bit rate                 : 2 983 Kbps
Encoded date                     : UTC 2007-11-20 16:15:53
Writing application              : mkvmerge v2.1.0 ('Another Place To Fall') built on Aug 19 2007 13:40:07
Writing library                  : libebml v0.7.7 + libmatroska v0.8.1
Cover                            : Yes / Yes / Yes / Yes / Yes

Video
ID                               : 1
Format                           : AVC
Format/Info                      : Advanced Video Codec
Format profile                   : High@L5.1
Format settings, CABAC           : Yes
Format settings, ReFrames        : 13 frames
Muxing mode                      : Container profile=Unknown@5.1
Codec ID                         : V_MPEG4/ISO/AVC
Duration                         : 24mn 20s
Bit rate                         : 1 577 Kbps
Nominal bit rate                 : 1 633 Kbps
Width                            : 672 pixels
Height                           : 432 pixels
Display aspect ratio             : 4/3
Frame rate                       : 14.985 fps
Resolution                       : 24 bits
Colorimetry                      : 4:2:0
Scan type                        : Progressive
Bits/(Pixel*Frame)               : 0.363
Stream size                      : 275 MiB (53%)
Title                            : Hoshi no Koe - Voices of a Distant Star
Writing library                  : x264 core 55 svn-663C
Encoding settings                : cabac=1 / ref=10 / deblock=1:0:0 / analyse=0x3:0x133 / me=umh / subme=7 / brdo=1 / mixed_ref=1 / me_range=16 / chroma_me=1 / trellis=0 / 8x8dct=1 / cqm=2 / deadzone=15,6 / chroma_qp_offset=0 / threads=3 / nr=0 / decimate=0 / mbaff=0 / bframes=3 / b_pyramid=1 / b_adapt=1 / b_bias=0 / direct=0 / wpredb=1 / bime=1 / keyint=250 / keyint_min=25 / scenecut=40(pre) / rc=2pass / bitrate=1633 / ratetol=1.0 / rceq='blurCplx^(1-qComp)' / qcomp=0.60 / qpmin=10 / qpmax=51 / qpstep=4 / cplxblur=20.0 / qblur=0.5 / ip_ratio=1.40 / pb_ratio=1.30 / aq=1:1.1:15.0

Audio #1
ID                               : 2
Format                           : AC-3
Format/Info                      : Audio Coding 3
Codec ID                         : A_AC3
Duration                         : 24mn 21s
Bit rate mode                    : Constant
Bit rate                         : 448 Kbps
Channel(s)                       : 6 channels
Channel positions                : Front: L C R, Surround: L R, LFE
Sampling rate                    : 48.0 KHz
Stream size                      : 78.0 MiB (15%)
Title                            : 5.1 AC3
Language                         : Japanese

Audio #2
ID                               : 3
Format                           : AC-3
Format/Info                      : Audio Coding 3
Codec ID                         : A_AC3
Duration                         : 24mn 21s
Bit rate mode                    : Constant
Bit rate                         : 448 Kbps
Channel(s)                       : 6 channels
Channel positions                : Front: L C R, Surround: L R, LFE
Sampling rate                    : 48.0 KHz
Stream size                      : 78.0 MiB (15%)
Title                            : 5.1 AC3 Director's Cut
Language                         : Japanese

Audio #3
ID                               : 4
Format                           : AC-3
Format/Info                      : Audio Coding 3
Codec ID                         : A_AC3
Duration                         : 24mn 21s
Bit rate mode                    : Constant
Bit rate                         : 448 Kbps
Channel(s)                       : 6 channels
Channel positions                : Front: L C R, Surround: L R, LFE
Sampling rate                    : 48.0 KHz
Stream size                      : 78.0 MiB (15%)
Title                            : 5.1 AC3
Language                         : English

Text #1
ID                               : 5
Format                           : ASS
Codec ID                         : S_TEXT/ASS
Codec ID/Info                    : Advanced Sub Station Alpha
Title                            : ass
Language                         : English

Text #2
ID                               : 6
Format                           : UTF-8
Codec ID                         : S_TEXT/UTF8
Codec ID/Info                    : UTF-8 Plain Text
Title                            : srt
Language                         : English


i have my wd player set at hdmi 720p 60hz, sound set at stereo though hdmi .ill will try more of my anime will update this post thanks.
« Last Edit: April 19, 2009, 10:41:56 AM by razuraw »