Author Topic: 1080p Pixel faults  (Read 3365 times)

August 03, 2009, 01:24:55 PM
Read 3365 times

Carnage

  • Newbie

  • Offline
  • *

  • 4
 :-\

My WD TV box seems to make a few pixel rendering failures from time to time. It doesn't happen reguarly, just from time to time. It doesn't make the film unwatchable but it IS kinda annoying. So here's the format information

General
Complete name                    : ...
Format                           : Matroska
File size                        : 98.7 MiB
Duration                         : 59s 521ms
Overall bit rate                 : 13.9 Mbps
Encoded date                     : UTC 2009-08-02 02:29:18
Writing application              : mkvmerge v2.9.7 ('Tenderness') built on Jul  1 2009 18:43:35
Writing library                  : libebml v0.7.7 + libmatroska v0.8.1

Video
ID                               : 1
Format                           : AVC
Format/Info                      : Advanced Video Codec
Format profile                   : High@L4.1
Format settings, CABAC           : Yes
Format settings, ReFrames        : 3 frames
Muxing mode                      : Container profile=Unknown@4.1
Codec ID                         : V_MPEG4/ISO/AVC
Duration                         : 59s 458ms
Bit rate                         : 12.1 Mbps
Width                            : 1 920 pixels
Height                           : 1 080 pixels
Display aspect ratio             : 16/9
Frame rate                       : 23.976 fps
Resolution                       : 24 bits
Colorimetry                      : 4:2:0
Scan type                        : Progressive
Bits/(Pixel*Frame)               : 0.244
Stream size                      : 86.0 MiB (87%)
Language                         : English

Audio
ID                               : 2
Format                           : DTS
Format/Info                      : Digital Theater Systems
Codec ID                         : A_DTS
Duration                         : 59s 521ms
Bit rate mode                    : Constant
Bit rate                         : 1 510 Kbps
Channel(s)                       : 6 channels
Channel positions                : Front: L C R, Surround: L R, LFE
Sampling rate                    : 48.0 KHz
Resolution                       : 24 bits
Video delay                      : 1ms
Stream size                      : 10.7 MiB (11%)
Language                         : English

Text
ID                               : 3
Format                           : UTF-8
Codec ID                         : S_TEXT/UTF8
Codec ID/Info                    : UTF-8 Plain Text
Language                         : English


Hope you can help me! :P

August 04, 2009, 10:53:38 AM
Reply #1

jayallan

  • Administrator
  • Hero Member

  • Offline
  • *****

  • 1175
    • Jay Allan Photo
What is a pixel rendering failure?
WDTV LIVE with current official FW > HDMI > DVDO > Sony CRT Projector 150" 16/9 screen.  Toslink audio to Yamaha DTS receiver. No Network set up yet.

August 05, 2009, 01:17:26 AM
Reply #2

Carnage

  • Newbie

  • Offline
  • *

  • 4
What is a pixel rendering failure?
Like disturbances in the movie. It also kind of lags in these "disturbancecs". ??? ??? ???

November 02, 2010, 03:20:12 AM
Reply #3

MargaretAnderson

  • Newbie

  • Offline
  • *

  • 7
  • Personal Text
    Our experts accomplish the best academic papers especially for you to get better greades! We accomplish only authentic essays online. With us you will receive the most professional issues for sure!
    • buy custom essay papers
Something alike was discussed on the ask.com,i can give someone a link if anybody need it
Writing services would provide the information associated with computer and I guess that would be no efforts to buy research papers also if you want to buy essays about that things!

November 02, 2010, 04:19:55 AM
Reply #4

RavRob

  • DeSpammer
  • Hero Member

  • Offline
  • ****

  • 1728
The frame rate IAW Media Info is 23.976 but you don't say what your setup is for the WDTV.  If it is set to 60hz it may not handle the 23.976 frame rate well.  B-rad fixed that in his custom firmware but enabling a Auto-Framerate capability...called autores.  So instead of trying to make a frame rate of 23.976 to look like 60, it makes your WDTV work at 23.976.  This removes what you call "Pixel Failure".  What it is really is WDTV duplicating frames to bring it as close to 60hz or 50hz (depending what you use).
Windows 7 Ultimate with SP1
WDTV Live
1.02.21 WDLXTV 0.5.1.4 (Beta)
Linksys - WUSB600N USB Adapter
DLink - Dir-655 Router
Atheros - AR8131 PCI-E Gigabit Ethernet Controller (NDIS 6.20)
XBMC - The Future of Television

December 10, 2010, 04:56:44 AM
Reply #5

koop

  • Newbie

  • Offline
  • *

  • 3
thanks for information