Author Topic: 1.02.07 WDTV "Hang"  (Read 2133 times)

August 02, 2009, 05:02:24 AM
Read 2133 times

plp121

  • Newbie

  • Offline
  • *

  • 4
I don't knwo if I post in a right place, sorry if i'm wrong.

I'm the new user of WDTV.

I just try to play the following file, but the result are:

First, it apper black screen and nothing for a while.
Second, after waiting about 7-8 seconds, the file is coming but in very slow montion.

After that, the file seems fast forward for a while, then come in command speed.

But all of this there is no sound.

And after I stop this file and try to play other files, all in black screen and cannot play, I have to switch off for a while then everything become normally but once I select this problem file again, all above issues come back.

Thanks!

General
Complete name                    : C:\Documents and Settings\XXXX\[MV] SNSD - Tell Me Your Wish (Genie) GOMTV.avi
Format                           : AVI
Format/Info                      : Audio Video Interleave
File size                        : 239 MiB
Duration                         : 4mn 0s
Overall bit rate                 : 8 337 Kbps
Writing application              : GOM Encoder (GAviWriter 1.0)

Video
ID                               : 0
Format                           : MPEG-4 Visual
Format profile                   : Simple@L1
Format settings, BVOP            : No
Format settings, QPel            : No
Format settings, GMC             : No warppoints
Format settings, Matrix          : Default (H.263)
Codec ID                         : XVID
Codec ID/Hint                    : XviD
Duration                         : 4mn 0s
Bit rate                         : 8 006 Kbps
Width                            : 1 920 pixels
Height                           : 1 080 pixels
Display aspect ratio             : 16:9
Frame rate                       : 23.976 fps
Resolution                       : 24 bits
Colorimetry                      : 4:2:0
Scan type                        : Progressive
Bits/(Pixel*Frame)               : 0.161
Stream size                      : 230 MiB (96%)
Writing library                  : Lavc52.10.0

Audio
ID                               : 1
Format                           : MPEG Audio
Format version                   : Version 1
Format profile                   : Layer 3
Codec ID                         : 55
Codec ID/Hint                    : MP3
Duration                         : 4mn 0s
Bit rate mode                    : Constant
Bit rate                         : 320 Kbps
Channel(s)                       : 2 channels
Sampling rate                    : 44.1 KHz
Resolution                       : 16 bits
Stream size                      : 9.19 MiB (4%)
Alignment                        : Aligned on interleaves
Interleave, duration             : 26 ms (0.63 video frame)
Interleave, preload duration     : 130 ms
Writing library                  : LAME3.97 (beta)

« Last Edit: August 02, 2009, 05:09:44 AM by plp121 »