Author Topic: Do WDTV support PGS subtitles format?  (Read 3811 times)

August 02, 2009, 04:17:55 AM
Read 3811 times

plp121

  • Newbie

  • Offline
  • *

  • 4
Hi, I'm the new WDTV user.

I played this file with WDTV but there is no subtitle allow to select.

There is two ways for open this file by TotalMedia Theatre 3 in PC, giving difference result as follow:

1. If start the program by "select source"--> "open disk folder", then both audios and subtitles can be selected.

2. if just double click the 00001.m2ts, then both audios and subtitles cannot be selected.

what I understand the WDTV play the movie same as the second way of TotalMedia Theatre 3. (But the WDTV able to selecte audios)

Please inform how I can play subtitles in WDTV

Thanks!

General
ID                               : 1
Complete name                    : H:\XXX\BDMV\STREAM\00001.m2ts
Format                           : BDAV
Format/Info                      : Blu-ray Video
File size                        : 35.2 GiB
Duration                         : 2h 25mn
Overall bit rate                 : 34.7 Mbps
Maximum Overall bit rate         : 35.5 Mbps

Video
ID                               : 4113 (0x1011)
Menu ID                          : 1 (0x1)
Format                           : AVC
Format/Info                      : Advanced Video Codec
Format profile                   : High@L4.1
Format settings, CABAC           : Yes
Format settings, ReFrames        : 4 frames
Duration                         : 2h 25mn
Width                            : 1 920 pixels
Height                           : 1 080 pixels
Display aspect ratio             : 16:9
Frame rate                       : 24.000 fps
Standard                         : NTSC
Resolution                       : 24 bits
Colorimetry                      : 4:2:0
Scan type                        : Progressive

Audio #1
ID                               : 4352 (0x1100)
Menu ID                          : 1 (0x1)
Format                           : PCM
Format settings, Endianness      : Big
Format settings, Sign            : Signed
Muxing mode                      : Blu-ray
Duration                         : 2h 25mn
Bit rate mode                    : Constant
Bit rate                         : 6 144 Kbps
Channel(s)                       : 8 channels
Channel positions                : Front: L R C, Middle: L R, Rear: L R, LFE
Sampling rate                    : 48.0 KHz
Resolution                       : 16 bits
Stream size                      : 6.24 GiB (18%)
Language                         : Chinese /  /

Audio #2
ID                               : 4353 (0x1101)
Menu ID                          : 1 (0x1)
Format                           : DTS
Format/Info                      : Digital Theater Systems
Format profile                   : MA
Duration                         : 2h 25mn
Bit rate mode                    : Variable
Channel(s)                       : 8 channels
Channel positions                : Front: L C R, Surround: L C C R, LFE
Sampling rate                    : 48.0 KHz
Resolution                       : 16 bits
Language                         : Chinese /  /

Audio #3
ID                               : 4354 (0x1102)
Menu ID                          : 1 (0x1)
Format                           : AC-3
Format/Info                      : Audio Coding 3
Duration                         : 2h 25mn
Bit rate mode                    : Constant
Bit rate                         : 448 Kbps
Channel(s)                       : 6 channels
Channel positions                : Front: L C R, Surround: L R, LFE
Sampling rate                    : 48.0 KHz
Video delay                      : 933ms
Stream size                      : 466 MiB (1%)
Language                         : Thai /  /

Text #1
ID                               : 4608 (0x1200)
Menu ID                          : 1 (0x1)
Format                           : PGS
Language                         : English /  /

Text #2
ID                               : 4609 (0x1201)
Menu ID                          : 1 (0x1)
Format                           : PGS
Language                         : Thai /  /