Author Topic: 10.02.10 Video playing too fast and audio out of sync  (Read 1586 times)

July 31, 2009, 08:02:36 AM
Read 1586 times

Dissident

  • Newbie

  • Offline
  • *

  • 13
When playing video, sometimes the video plays slightly fast and the audio gets out of sync with the video (audio plays normal). This seems to be intermittent in some videos and constant in others. Sometimes pressing the FF button on the remote for a few seconds, then playing regularly takes care of the audio syncing - sometimes not. Sometimes slamming into reverse then play very quickly causes every other frame to "flash". To get rid of the flashing I have to hit FF and just keep doing it until it stops.


King of Queens S3D1
Quote
General
Complete name                    : C:\Video\301 - Do Rico.mkv
Format                           : Matroska
File size                        : 187 MiB
Duration                         : 22mn 31s
Overall bit rate                 : 1 162 Kbps
Writing application              : HandBrake 0.9.3

Video
ID                               : 1
Format                           : AVC
Format/Info                      : Advanced Video Codec
Format profile                   : Main@L3.0
Format settings, CABAC           : Yes
Format settings, ReFrames        : 1 frame
Muxing mode                      : Container profile=Unknown@3.0
Codec ID                         : V_MPEG4/ISO/AVC
Duration                         : 22mn 30s
Bit rate                         : 946 Kbps
Nominal bit rate                 : 1 200 Kbps
Width                            : 624 pixels
Height                           : 480 pixels
Display aspect ratio             : 1.300
Frame rate                       : 29.970 fps
Resolution                       : 24 bits
Colorimetry                      : 4:2:0
Scan type                        : Progressive
Bits/(Pixel*Frame)               : 0.105
Stream size                      : 152 MiB (81%)
Writing library                  : x264 core 65
Encoding settings                : cabac=1 / ref=1 / deblock=1:0:0 / analyse=0x1:0x111 / me=hex / subme=6 / psy_rd=1.0:0.0 / mixed_ref=0 / me_range=16 / chroma_me=1 / trellis=0 / 8x8dct=0 / cqm=0 / deadzone=21,11 / chroma_qp_offset=-2 / threads=3 / nr=0 / decimate=1 / mbaff=0 / bframes=0 / keyint=300 / keyint_min=30 / scenecut=40(pre) / rc=abr / bitrate=1200 / ratetol=1.0 / qcomp=0.60 / qpmin=10 / qpmax=51 / qpstep=4 / ip_ratio=1.40 / aq=1:1.00

Audio
ID                               : 2
Format                           : AC-3
Format/Info                      : Audio Coding 3
Format profile                   : Dolby Digital
Codec ID                         : A_AC3
Duration                         : 22mn 31s
Bit rate mode                    : Constant
Bit rate                         : 192 Kbps
Channel(s)                       : 2 channels
Channel positions                : L R
Sampling rate                    : 48.0 KHz
Stream size                      : 30.9 MiB (17%)
Language                         : English

Menu
00:00:00.000                     : Chapter 1
00:01:54.080                     : Chapter 2
00:11:52.078                     : Chapter 3
00:21:24.049                     : Chapter 4
00:22:03.622                     : Chapter 5
00:22:30.048                     : Chapter 6