Author Topic: Bug v1.02.07 and v 1.02.10: AVI file is played with 1.33 speed  (Read 958 times)

July 29, 2009, 10:15:11 PM
Read 958 times

moneyfish

  • Newbie

  • Offline
  • *

  • 2
Hi all:

Here is a AVI file that played with incorrect speed on WD player. The clip is uploaded to http://mycheckbook.twbbs.org/media/amba0001.rar

It looks like 1.33X playback speed.

The clip info is as follows:
   General
      Complete name : I:\AMBA0001.AVI
      Format : AVI
      Format/Info : Audio Video Interleave
      File size : 6.83 MiB
      Duration : 12s 812ms
      Overall bit rate : 4 469 Kbps
      Recorded date : 2008-01-01
      Writing library : AMBA
      ICRT : 22:53:29
   Video
      Format : AVC
      Format/Info : Advanced Video Codec
      Format profile : Main@L3.0
      Format settings, CABAC : Yes
      Format settings, ReFrames : 4 frames
      Codec ID : H264
      Duration : 12s 812ms
      Bit rate : 4 059 Kbps
      Width : 640 pixels
      Height : 480 pixels
      Display aspect ratio : 4/3
      Frame rate : 29.970 fps
      Resolution : 24 bits
      Colorimetry : 4:2:0
      Scan type : Progressive
      Bits/(Pixel*Frame) : 0.441
      Stream size : 6.20 MiB (91%)
   Audio
      Format : ADPCM
      Codec ID : 11
      Codec ID/Info : Intel ADPCM
      Duration : 12s 628ms
      Bit rate mode : Constant
      Bit rate : 384 Kbps
      Channel(s) : 2 channels
      Sampling rate : 48.0 KHz
      Resolution : 4 bits
      Stream size : 604 KiB (9%)
      Interleave, duration : 42 ms (1.27 video frame)

Any improvement is appreciated. Thanks.

Regards,
Moneyfish