Author Topic: MKV Audio/Video slightly out of sync  (Read 1661 times)

July 08, 2009, 05:50:10 AM
Read 1661 times

mmmdonuts

  • Newbie

  • Offline
  • *

  • 2
looked on the forums but couldn't find something that is similar to what i'm experiencing.

The files below play fine on my computer but the audio is slightly out of sync on the WDTV (just enough to be annoying).

Quote
/Gladiator.2000.720p.HDTV.DTS-ES.x264-ESiR/Gladiator.2000.720p.HDTV.DTS-ES.x264-ESiR.mkv

Format                           : Matroska

File size                        : 7.94 GiB

Duration                         : 2h 28mn

Overall bit rate                 : 7 659 Kbps

Encoded date                     : UTC 2006-11-04 03:42:08

Writing application              : mkvmerge v1.7.0 ('What Do You Take Me For') built on Apr 28 2006 17:20:19

Writing library                  : libebml v0.7.7 + libmatroska v0.8.0



Video

ID                               : 1

Format                           : AVC

Format/Info                      : Advanced Video Codec

Format profile                   : High@L5.1

Format settings, CABAC           : Yes

Format settings, ReFrames        : 8 frames

Muxing mode                      : Container profile=Unknown@5.1

Codec ID                         : V_MPEG4/ISO/AVC

Duration                         : 2h 28mn

Bit rate                         : 6 752 Kbps

Nominal bit rate                 : 6 900 Kbps

Width                            : 1 280 pixels

Height                           : 720 pixels

Display aspect ratio             : 16/9

Frame rate                       : 23.976 fps

Resolution                       : 24 bits

Colorimetry                      : 4:2:0

Scan type                        : Progressive

Bits/(Pixel*Frame)               : 0.306

Stream size                      : 6.99 GiB (88%)

Title                            : x264 MP4 Videostream

Writing library                  : x264 core 54 svn-594

Encoding settings                : cabac=1 / ref=5 / deblock=1:0:0 / analyse=0x3:0x133 / me=umh / subme=7 / brdo=1 / mixed_ref=1 / me_range=16 / chroma_me=1 / trellis=1 / 8x8dct=1 / cqm=0 / deadzone=21,11 / chroma_qp_offset=0 / slices=2 / nr=0 / decimate=1 / mbaff=0 / bframes=3 / b_pyramid=1 / b_adapt=1 / b_bias=0 / direct=3 / wpredb=1 / bime=1 / keyint=250 / keyint_min=25 / scenecut=40 / rc=2pass / bitrate=6900 / ratetol=1.0 / rceq='blurCplx^(1-qComp)' / qcomp=0.60 / qpmin=10 / qpmax=51 / qpstep=1 / cplxblur=20.0 / qblur=0.5 / ip_ratio=1.40 / pb_ratio=1.30



Audio

ID                               : 2

Format                           : DTS

Format/Info                      : Digital Theater Systems

Format profile                   : ES

Codec ID                         : A_DTS

Duration                         : 2h 28mn

Bit rate mode                    : Constant

Bit rate                         : 754 Kbps

Channel(s)                       : 7 channels

Channel positions                : Front: L C R, Rear: L C R, LFE

Sampling rate                    : 48.0 KHz

Resolution                       : 24 bits

Stream size                      : 801 MiB (10%)

Title                            : DTS-ES 5.1

Language                         : English

Quote
Titanic.1997.nHD.720p.x264.NhaNc3.mpg

Format                           : MPEG-TS

File size                        : 4.56 GiB

Duration                         : 3h 6mn

Overall bit rate                 : 3 496 Kbps

Maximum Overall bit rate         : 35.5 Mbps



Video

ID                               : 4113 (0x1011)

Menu ID                          : 1 (0x1)

Format                           : AVC

Format/Info                      : Advanced Video Codec

Format profile                   : High@L4.1

Format settings, CABAC           : Yes

Format settings, ReFrames        : 3 frames

Duration                         : 3h 6mn

Bit rate                         : 2 806 Kbps

Nominal bit rate                 : 2 905 Kbps

Width                            : 1 280 pixels

Height                           : 544 pixels

Display aspect ratio             : 2.35

Frame rate                       : 25.000 fps

Resolution                       : 24 bits

Colorimetry                      : 4:2:0

Scan type                        : Progressive

Bits/(Pixel*Frame)               : 0.161

Stream size                      : 3.66 GiB (80%)

Writing library                  : x264 core 59 r819M 0414d78

Encoding settings                : cabac=1 / ref=3 / deblock=1:-2:-1 / analyse=0x3:0x113 / me=umh / subme=6 / me-prepass=0 / brdo=0 / mixed_ref=0 / me_range=12 / chroma_me=1 / trellis=1 / 8x8dct=1 / cqm=2 / deadzone=21,11 / chroma_qp_offset=0 / threads=3 / nr=0 / decimate=1 / mbaff=0 / bframes=16 / b_pyramid=1 / b_adapt=1 / b_bias=0 / direct=3 / wpredb=1 / bime=0 / keyint=250 / keyint_min=25 / scenecut=40(pre) / rc=2pass / bitrate=2905 / ratetol=1.0 / rceq='blurCplx^(1-qComp)' / qcomp=1.00 / qpmin=10 / qpmax=51 / qpstep=4 / cplxblur=20.0 / qblur=0.5 / ip_ratio=1.40 / pb_ratio=1.30 / aq=2:1.0



Audio

ID                               : 4352 (0x1100)

Menu ID                          : 1 (0x1)

Format                           : AC-3

Format/Info                      : Audio Coding 3

Duration                         : 3h 6mn

Bit rate mode                    : Constant

Bit rate                         : 448 Kbps

Channel(s)                       : 6 channels

Channel positions                : Front: L C R, Surround: L R, LFE

Sampling rate                    : 48.0 KHz

Stream size                      : 599 MiB (13%)

any help would be appreciated.

for gladiator ref frames is 8.. is that too high?

how can i fix the files so i can watch them on the WDTV?

THANKS!