Author Topic: Help with m2ts file !  (Read 1136 times)

September 06, 2013, 02:43:01 PM
Read 1136 times

Bric

  • Newbie

  • Offline
  • *

  • 1
Hi , i have an wdtv live media player
WDBHG70000NBK-HESN


I have a sony camcorder model ???-XR200v

When i try to play the files at wdtv, it always stutter or freeze.  i have to rewind quickly , and then press play again, then it plays normal for another 20 seconds / 30 seconds, and then again stutter and freezes.

What happens?

I saw some place in internet , that m2ts it's not a standard.
That m2ts from bluray is standard , but from camcorders, they are different... sony has one, canon another, jvc another , etc...
is this true ?

What can i do to see my videos ?  convert? wich program?
If i have to convert, i want to do it lossly.

Can someone help?



Here is my video files codecs by mediainfo:

Format                                   : BDAV
Format/Info                              : Blu-ray Video
File size                                : 979 MiB
Duration                                 : 7mn 52s
Overall bit rate mode                    : Variable
Overall bit rate                         : 17.4 Mbps
Maximum Overall bit rate                 : 18.0 Mbps

Video
ID                                       : 4113 (0x1011)
Menu ID                                  : 1 (0x1)
Format                                   : AVC
Format/Info                              : Advanced Video Codec
Format profile                           : High@L4.0
Format settings, CABAC                   : Yes
Format settings, ReFrames                : 2 frames
Format settings, GOP                     : M=2, N=15
Codec ID                                 : 27
Duration                                 : 7mn 52s
Bit rate mode                            : Variable
Bit rate                                 : 16.2 Mbps
Maximum bit rate                         : 16.0 Mbps
Width                                    : 1 920 pixels
Height                                   : 1 080 pixels
Display aspect ratio                     : 16:9
Frame rate                               : 29.970 fps
Color space                              : YUV
Chroma subsampling                       : 4:2:0
Bit depth                                : 8 bits
Scan type                                : Interlaced
Scan order                               : Top Field First
Bits/(Pixel*Frame)                       : 0.261
Stream size                              : 914 MiB (93%)

Audio
ID                                       : 4352 (0x1100)
Menu ID                                  : 1 (0x1)
Format                                   : AC-3
Format/Info                              : Audio Coding 3
Mode extension                           : CM (complete main)
Format settings, Endianness              : Big
Codec ID                                 : 129
Duration                                 : 7mn 52s
Bit rate mode                            : Constant
Bit rate                                 : 448 Kbps
Channel(s)                               : 6 channels
Channel positions                        : Front: L C R, Side: L R, LFE
Sampling rate                            : 48.0 KHz
Bit depth                                : 16 bits
Compression mode                         : Lossy
Delay relative to video                  : -67ms
Stream size                              : 25.3 MiB (3%)

Text
ID                                       : 4608 (0x1200)
Menu ID                                  : 1 (0x1)
Format                                   : PGS
Codec ID                                 : 144
Duration                                 : 7mn 52s
Delay relative to video                  : -67ms

September 06, 2013, 08:32:11 PM
Reply #1

Techflaws

  • Sr. Member

  • Offline
  • ****

  • 282
    • Tech Flaws - Things Can Only Get Better
Remux to MKV with MKVToolnix and see if it works.