Author Topic: .avi files have stuttering video  (Read 5009 times)

April 03, 2009, 04:31:58 PM
Read 5009 times

Stinkpickle

  • Newbie

  • Offline
  • *

  • 30
Hey guys,

My WD TV seems to playback my AVI files with a random stutter in the video, however the sound continues to play. The picture randomly pause and the resumes X amount of seconds later. I believe most of them are XVID compressed, I don't know what else you need to know - but if there's something let me know and how.

Everything else seems to play back smoothly, such as .mkv aside from the known audio issues.

Thanks!

April 03, 2009, 04:50:12 PM
Reply #1

Stinkpickle

  • Newbie

  • Offline
  • *

  • 30
A few of the files that have these issues:

Quote
General
CompleteName                     : -
Format                           : AVI
Format/Info                      : Audio Video Interleave
FileSize/String                  : 701 MiB
Duration/String                  : 2h 7mn
OverallBitRate/String            : 770 Kbps
Encoded_Application              : VirtualDubMod 1.5.10.1 (build 2366/release)
Encoded_Library/String           : VirtualDubMod build 2366/release

Video
Format                           : MPEG-4 Visual
Format_Profile                   : Streaming Video@L1
Format_Settings_BVOP/String      : Yes
Format_Settings_QPel/String      : No
Format_Settings_GMC/String       : No warppoints
Format_Settings_Matrix/String    : Default (H.263)
CodecID                          : DX50
CodecID/Hint                     : DivX 5
Duration/String                  : 2h 7mn
BitRate/String                   : 680 Kbps
Width/String                     : 532 pixels
Height/String                    : 222 pixels
DisplayAspectRatio/String        : 2.35
FrameRate/String                 : 23.976 fps
Resolution/String                : 24 bits
Colorimetry                      : 4:2:0
ScanType/String                  : Progressive
Bits-(Pixel*Frame)               : 0.240
StreamSize/String                : 619 MiB (88%)
Encoded_Library/String           : XviD 1.0.3 (UTC 2004-12-20)

Audio
Format                           : MPEG Audio
Format_Version                   : Version 1
Format_Profile                   : Layer 3
CodecID                          : 55
CodecID/Hint                     : MP3
Duration/String                  : 2h 7mn
BitRate_Mode/String              : Constant
BitRate/String                   : 80.0 Kbps
Channel(s)/String                : 2 channels
SamplingRate/String              : 48.0 KHz
Resolution/String                : 16 bits
StreamSize/String                : 72.8 MiB (10%)
Alignment/String                 : Aligned on interleaves
Interleave_Duration/String       : 42 ms (1.00 video frame)
Interleave_Preload/String        : 504 ms



Quote
General
CompleteName                     : -
Format                           : AVI
Format/Info                      : Audio Video Interleave
FileSize/String                  : 1.37 GiB
Duration/String                  : 2h 43mn
OverallBitRate/String            : 1 194 Kbps
Encoded_Application              : VirtualDubMod 1.5.10.1 (build 2366/release)
Encoded_Library/String           : VirtualDubMod build 2366/release

Video
Format                           : MPEG-4 Visual
CodecID                          : DX50
CodecID/Hint                     : DivX 5
Duration/String                  : 2h 43mn
BitRate/String                   : 3 617 Kbps
Width/String                     : 572 pixels
Height/String                    : 238 pixels
DisplayAspectRatio/String        : 2.403
FrameRate/String                 : 25.000 fps
Resolution/String                : 12 bits
Bits-(Pixel*Frame)               : 1.063
StreamSize/String                : 4.14 GiB (303%)

Audio
Format                           : AC-3
Format/Info                      : Audio Coding 3
CodecID                          : 2000
Duration/String                  : 2h 43mn
BitRate_Mode/String              : Constant
BitRate/String                   : 384 Kbps
Channel(s)/String                : 6 channels
ChannelPositions                 : Front: L C R, Surround: L R, LFE
SamplingRate/String              : 48.0 KHz
StreamSize/String                : 706 MiB (50%)
Alignment/String                 : Split accross interleaves
Interleave_Duration/String       : 40 ms (1.00 video frame)
Interleave_Preload/String        : 500 ms


Quote
General
CompleteName                     : -
Format                           : AVI
Format/Info                      : Audio Video Interleave
FileSize/String                  : 699 MiB
Duration/String                  : 1h 20mn
OverallBitRate/String            : 1 217 Kbps
Encoded_Application              : Nandub v1.0rc2
Encoded_Library/String           : Nandub build 1852/release

Video
Format                           : MPEG-4 Visual
CodecID                          : XVID
CodecID/Hint                     : XviD
Duration/String                  : 1h 20mn
BitRate/String                   : 1 901 Kbps
Width/String                     : 624 pixels
Height/String                    : 336 pixels
DisplayAspectRatio/String        : 1.857
FrameRate/String                 : 25.000 fps
Resolution/String                : 12 bits
Bits-(Pixel*Frame)               : 0.363
StreamSize/String                : 1.07 GiB (156%)

Audio
Format                           : MPEG Audio
CodecID                          : 55
CodecID/Hint                     : MP3
Duration/String                  : 1h 20mn
BitRate/String                   : 125 Kbps
Channel(s)/String                : 2 channels
SamplingRate/String              : 48.0 KHz
StreamSize/String                : 720 MiB (103%)
Alignment/String                 : Aligned on interleaves
Interleave_Duration/String       : 24 ms (0.60 video frame)
Interleave_Preload/String        : 43355894 ms


Quote
General
CompleteName                     : -
Format                           : AVI
Format/Info                      : Audio Video Interleave
FileSize/String                  : 697 MiB
Duration/String                  : 1h 26mn
OverallBitRate/String            : 1 133 Kbps
Encoded_Application              : Nandub v1.0rc2
Encoded_Library/String           : Nandub build 1852/release

Video
Format                           : MPEG-4 Visual
Format_Profile                   : Streaming Video@L1
Format_Settings_BVOP/String      : Yes
Format_Settings_QPel/String      : No
Format_Settings_GMC/String       : No warppoints
Format_Settings_Matrix/String    : Default (H.263)
CodecID                          : XVID
CodecID/Hint                     : XviD
Duration/String                  : 1h 26mn
BitRate/String                   : 677 Kbps
Width/String                     : 512 pixels
Height/String                    : 272 pixels
DisplayAspectRatio/String        : 1.882
FrameRate/String                 : 23.976 fps
Resolution/String                : 24 bits
Colorimetry                      : 4:2:0
ScanType/String                  : Progressive
Bits-(Pixel*Frame)               : 0.203
StreamSize/String                : 417 MiB (60%)
Encoded_Library/String           : XviD 0039 build=2005.09.16 (UTC 2005-09-16)

Audio
Format                           : AC-3
Format/Info                      : Audio Coding 3
CodecID                          : 2000
Duration/String                  : 1h 26mn
BitRate_Mode/String              : Constant
BitRate/String                   : 448 Kbps
Channel(s)/String                : 2 channels
ChannelPositions                 : L R
SamplingRate/String              : 48.0 KHz
StreamSize/String                : 276 MiB (40%)
Alignment/String                 : Split accross interleaves
Interleave_Duration/String       : 64 ms (1.53 video frames)
Interleave_Preload/String        : 500 ms

April 04, 2009, 12:18:52 AM
Reply #2

3dxr

  • Global Moderator
  • Sr. Member

  • Offline
  • *****

  • 411
Please also WDTV firmware version which is in player go to Settings -> System -> About

also you can try use virtualdub or avidemux and remux the movie probably there are some errrors

open movie and for virtualdub/virtualdubmod use only 'direct stream' for video and also for audio
Save as AVI and wait and compare it with bad movie if this will not work

also good tool is

mencoder from mplayer project

mencoder <your_bad_movie.avi> -ovc copy -oac copy -idx -o <new_filename.avi>


please let me know if this will not work

April 04, 2009, 12:45:51 PM
Reply #3

Stinkpickle

  • Newbie

  • Offline
  • *

  • 30
The Firmware is the new pre-release one, however it did it every previous version also.

I will try remuxing them, is there a way to que a batch of movies up and hit them all up in one night if it does work?

Thanks.

May 04, 2009, 01:12:56 PM
Reply #4

Goul

  • Newbie

  • Offline
  • *

  • 15
i think i have the same problem with firmware 1.02.06
Here is my link:

http://wdtvforum.com/main/index.php?topic=633.0

Edit:
I have update to firmware 1.02.07, it have the same problem :(

Code: [Select]
[majonas@localhost 01]$ mencoder original.avi -ovc copy -oac copy -idx -o ../test.avi
MEncoder SVN-r28461-4.3.2 (C) 2000-2009 MPlayer Team
CPU: Intel(R) Core(TM)2 Quad  CPU   Q9450  @ 2.66GHz (Family: 6, Model: 23, Stepping: 7)
success: format: 0  data: 0x0 - 0x3d0d3800
AVI file format detected.
[aviheader] Video stream found, -vid 0
[aviheader] Audio stream found, -aid 1
[aviheader] Audio stream found, -aid 2
VIDEO:  [XVID]  576x416  24bpp  25.000 fps  979.7 kbps (119.6 kbyte/s)
[V] filefmt:3  fourcc:0x44495658  size:576x416  fps:25.000  ftime:=0.0400
videocodec: framecopy (576x416 24bpp fourcc=44495658)
audiocodec: framecopy (format=2000 chans=5 rate=48000 bits=0 B/s=56000 sample-1)
Writing header...
ODML: Aspect information not (yet?) available or unspecified, not writing vprp header.
Writing header...
ODML: Aspect information not (yet?) available or unspecified, not writing vprp header.
Writing index...75f (100%) 472.56fps Trem:   0min 890mb  A-V:0.040 [979:448]]
Writing header...
ODML: Aspect information not (yet?) available or unspecified, not writing vprp header.

Video stream:  979.716 kbit/s  (122464 B/s)  size: 640121765 bytes  5227.000 secs  130675 frames

Audio stream:  448.000 kbit/s  (56000 B/s)  size: 292710656 bytes  5226.976 secs
[majonas@localhost 01]$

test.avi reboots first play the wdtv.
after it i can play but its the same problem as the original.
« Last Edit: May 04, 2009, 01:37:10 PM by Goul »

May 04, 2009, 04:43:04 PM
Reply #5

high_definitely

  • Jr. Member

  • Offline
  • **

  • 54
@Stinkpickle

Those files have different frame rates, some run at 25fps, while others are 23.976fps files. What are your WD TV-HD settings, I mean what resolution and refresh rate? Or is the WDTV set to 'auto'? Where are you from, North America or Europe?

25fps files need to be played back at a PAL compatible refresh rate of 50Hz, otherwise they will stutter. For (relatively) smooth 23.976fps playback, you can either choose the 24Hz or 60Hz setting.

May 11, 2009, 08:35:27 AM
Reply #6

Stinkpickle

  • Newbie

  • Offline
  • *

  • 30
I'm from North America and the WD TV is set to Auto, I'll play playing with those settings I guess.

Thanks

May 16, 2009, 02:09:15 PM
Reply #7

bobosquishy

  • Full Member

  • Offline
  • ***

  • 202
I also have this "stuttering" video issue.  I have so far identified four files with this problem.  Here is the MediaInfo:

Code: [Select]
Format                           : AVI
Format/Info                      : Audio Video Interleave
File size                        : 204 MiB
Duration                         : 25mn 1s
Overall bit rate                 : 1 140 Kbps
Writing application              : mkvextract 2.7.0

Video
Format                           : MPEG-4 Visual
Format profile                   : Streaming Video@L1
Format settings, BVOP            : Yes
Format settings, QPel            : Yes
Format settings, GMC             : 3 warppoints
Format settings, Matrix          : Default (H.263)
Muxing mode                      : Packed bitstream
Codec ID                         : XVID
Codec ID/Hint                    : XviD
Duration                         : 25mn 1s
Bit rate                         : 1 135 Kbps
Width                            : 640 pixels
Height                           : 480 pixels
Display aspect ratio             : 4/3
Frame rate                       : 23.976 fps
Resolution                       : 24 bits
Colorimetry                      : 4:2:0
Scan type                        : Progressive
Bits/(Pixel*Frame)               : 0.154
Stream size                      : 203 MiB (100%)
Writing library                  : XviD 1.0.3 (UTC 2004-12-20)

Code: [Select]
Format                           : AVI
Format/Info                      : Audio Video Interleave
File size                        : 203 MiB
Duration                         : 25mn 1s
Overall bit rate                 : 1 133 Kbps
Writing application              : mkvextract 2.7.0

Video
Format                           : MPEG-4 Visual
Format profile                   : Streaming Video@L1
Format settings, BVOP            : Yes
Format settings, QPel            : Yes
Format settings, GMC             : 3 warppoints
Format settings, Matrix          : Default (H.263)
Muxing mode                      : Packed bitstream
Codec ID                         : XVID
Codec ID/Hint                    : XviD
Duration                         : 25mn 1s
Bit rate                         : 1 128 Kbps
Width                            : 640 pixels
Height                           : 480 pixels
Display aspect ratio             : 4/3
Frame rate                       : 23.976 fps
Resolution                       : 24 bits
Colorimetry                      : 4:2:0
Scan type                        : Progressive
Bits/(Pixel*Frame)               : 0.153
Stream size                      : 202 MiB (100%)
Writing library                  : XviD 1.0.3 (UTC 2004-12-20)

Code: [Select]
Format                           : AVI
Format/Info                      : Audio Video Interleave
File size                        : 157 MiB

Video
Format                           : MPEG-4 Visual
Format profile                   : Streaming Video@L1
Format settings, BVOP            : Yes
Format settings, QPel            : Yes
Format settings, GMC             : 3 warppoints
Format settings, Matrix          : Default (H.263)
Muxing mode                      : Packed bitstream
Codec ID                         : XVID
Codec ID/Hint                    : XviD
Width                            : 640 pixels
Height                           : 360 pixels
Display aspect ratio             : 16/9
Frame rate                       : 23.976 fps
Resolution                       : 24 bits
Colorimetry                      : 4:2:0
Scan type                        : Progressive
Writing library                  : XviD 1.0.3 (UTC 2004-12-20)


Code: [Select]
Format                           : AVI
Format/Info                      : Audio Video Interleave
File size                        : 480 MiB
Duration                         : 1h 39mn
Overall bit rate                 : 675 Kbps
Writing application              : mkvextract 2.7.0

Video
Format                           : MPEG-4 Visual
Format profile                   : Streaming Video@L1
Format settings, BVOP            : Yes
Format settings, QPel            : Yes
Format settings, GMC             : 3 warppoints
Format settings, Matrix          : Default (H.263)
Muxing mode                      : Packed bitstream
Codec ID                         : XVID
Codec ID/Hint                    : XviD
Duration                         : 1h 39mn
Bit rate                         : 670 Kbps
Width                            : 848 pixels
Height                           : 480 pixels
Display aspect ratio             : 16/9
Frame rate                       : 23.976 fps
Resolution                       : 24 bits
Colorimetry                      : 4:2:0
Scan type                        : Progressive
Bits/(Pixel*Frame)               : 0.069
Stream size                      : 477 MiB (99%)
Writing library                  : XviD 1.1.0 Beta2 (UTC 2005-04-04)

As you can see, they are all xvid @ 23.976 fps.  I dumped all of them from mkv containers using mkvextract before loading them into MediaInfo.

My TV is an NTSC widescreen samsung and I am using HDMI with the output setting at auto.  My firmware is 1.02.07.
I reserve the right to ignore you for any reason.

May 16, 2009, 11:34:41 PM
Reply #8

3dxr

  • Global Moderator
  • Sr. Member

  • Offline
  • *****

  • 411
I also have this "stuttering" video issue.  I have so far identified four files with this problem.  Here is the MediaInfo:

Code: [Select]
Format                           : AVI
Format/Info                      : Audio Video Interleave

[size=15pt][b][color=red]Format settings, QPel            : Yes
Format settings, GMC             : 3 warppoints
Format settings, Matrix          : Default (H.263)
Muxing mode                      : Packed bitstream
Codec ID                         : XVID[/color][/b][/size]
Codec ID/Hint                    : XviD
Duration                         : 25mn 1s
Bit rate                         : 1 128 Kbps
Width                            : 640 pixels
Height                           : 480 pixels

As you can see, they are all xvid @ 23.976 fps.  I dumped all of them from mkv containers using mkvextract before loading them into MediaInfo.
My TV is an NTSC widescreen samsung and I am using HDMI with the output setting at auto.  My firmware is 1.02.07.

re-encode movie to x264 or again to XVID from DVD source and newer use 3warp point GMC also dont use Packetbitstream for better compatibity with other players

GMC maximum 1 warp point for future

 bye

July 16, 2009, 10:59:59 PM
Reply #9

bobosquishy

  • Full Member

  • Offline
  • ***

  • 202
re-encode movie to x264 or again to XVID from DVD source and never use 3warp point GMC also dont use Packetbitstream for better compatibity with other players

GMC maximum 1 warp point for future[/size]
 bye
First, a belated "thankyou" for your reply. 

I have found that I can use GMC with 2 warp points and not experience any video stuttering on WDTV, although I have not run extensive playback testing on this yet.  It seems okay so far.  I do not plan on using GMC in the future, but I just think it is good to know how many warp points you can get away with.

Has anyone else tested this out?

xvid with 1-2 warp points = okay
xvid with 3 warp points = bad
I reserve the right to ignore you for any reason.

January 15, 2010, 12:14:49 AM
Reply #10

sid2984

  • Newbie

  • Offline
  • *

  • 1
Hi i am also having issue with avi files having a stuttering video
details of the file given below

Format                           : AVI
Format/Info                      : Audio Video Interleave
Format profile                   : OpenDML
File size                        : 3.27 GiB
Duration                         : 2h 0mn
Overall bit rate                 : 3 893 Kbps
Writing application              : VirtualDubMod 1.5.10.2 (build 2540/release)
Writing library                  : VirtualDubMod build 2540/release

Video
ID                               : 0
Format                           : MPEG-4 Visual
Format profile                   : AdvancedSimple@L5
Format settings, BVOP            : Yes
Format settings, QPel            : Yes
Format settings, GMC             : 3 warppoints
Format settings, Matrix          : Default (H.263)
Codec ID                         : XVID
Codec ID/Hint                    : XviD
Duration                         : 2h 0mn
Bit rate                         : 3 499 Kbps
Width                            : 1 280 pixels
Height                           : 544 pixels
Display aspect ratio             : 2.35:1
Frame rate                       : 23.976 fps
Resolution                       : 24 bits
Colorimetry                      : 4:2:0
Scan type                        : Progressive
Bits/(Pixel*Frame)               : 0.210
Stream size                      : 2.94 GiB (90%)
Writing library                  : XviD 1.2.0.dev47 (UTC 2006-11-01)

Audio
ID                               : 1
Format                           : AC-3
Format/Info                      : Audio Coding 3
Codec ID                         : 2000
Duration                         : 2h 0mn
Bit rate mode                    : Constant
Bit rate                         : 384 Kbps
Channel(s)                       : 2 channels
Channel positions                : L R
Sampling rate                    : 48.0 KHz
Stream size                      : 330 MiB (10%)
Alignment                        : Split accross interleaves
Interleave, duration             : 42 ms (1.00 video frame)
Interleave, preload duration     : 500 ms