Author Topic: WD Won't Play, Help Please  (Read 3729 times)

May 21, 2012, 11:25:41 AM
Read 3729 times

grizzly660fan

  • Newbie

  • Offline
  • *

  • 1
I have the WD TV Live Hub and for some reason I don't know It won't play some of my movie files. I am hoping someone here can tell me what is wrong so I can fix it?

Here if info on a currently working movie as a reference:
General
Unique ID                                : 186117667303056757580120094448099815690 (0x8C04F57819DB195885241CFEC42C710A)
Complete name                            : \\WDTVLIVEHUB\WDTVLiveHub\network_sync\Videos\The.Green.Hornet.2011\The.Green.Hornet.2011.1080p.Bluray.DTS.x264-SHiTSoNy.mkv
Format                                   : Matroska
Format version                           : Version 2
File size                                : 10.1 GiB
Duration                                 : 1h 58mn
Overall bit rate                         : 12.2 Mbps
Encoded date                             : UTC 2011-05-25 09:18:56
Writing application                      : mkvmerge v4.0.0 ('The Stars were mine') built on Jun  5 2010 17:44:09
Writing library                          : libebml v1.0.0 + libmatroska v1.0.0

Video
ID                                       : 1
Format                                   : AVC
Format/Info                              : Advanced Video Codec
Format profile                           : High@L4.1
Format settings, CABAC                   : Yes
Format settings, ReFrames                : 5 frames
Codec ID                                 : V_MPEG4/ISO/AVC
Duration                                 : 1h 58mn
Bit rate                                 : 10.7 Mbps
Width                                    : 1 920 pixels
Height                                   : 800 pixels
Display aspect ratio                     : 2.40:1
Frame rate                               : 23.976 fps
Color space                              : YUV
Chroma subsampling                       : 4:2:0
Bit depth                                : 8 bits
Scan type                                : Progressive
Bits/(Pixel*Frame)                       : 0.290
Stream size                              : 8.67 GiB (86%)
Writing library                          : x264 core 114 r1913 5fd3dce
Encoding settings                        : cabac=1 / ref=5 / deblock=1:-2:-1 / analyse=0x3:0x113 / me=umh / subme=10 / psy=1 / psy_rd=1.00:0.00 / mixed_ref=1 / me_range=24 / chroma_me=1 / trellis=2 / 8x8dct=1 / cqm=0 / deadzone=21,11 / fast_pskip=1 / chroma_qp_offset=-2 / threads=6 / sliced_threads=0 / nr=0 / decimate=1 / interlaced=0 / constrained_intra=0 / bframes=8 / b_pyramid=2 / b_adapt=2 / b_bias=0 / direct=3 / weightb=1 / open_gop=0 / weightp=2 / keyint=250 / keyint_min=23 / scenecut=40 / intra_refresh=0 / rc_lookahead=40 / rc=2pass / mbtree=0 / bitrate=10694 / ratetol=1.0 / qcomp=0.60 / qpmin=0 / qpmax=69 / qpstep=4 / cplxblur=20.0 / qblur=0.5 / vbv_maxrate=32000 / vbv_bufsize=40000 / nal_hrd=none / ip_ratio=1.40 / pb_ratio=1.30 / aq=1:1.00 / zones=162685,170826,q=29,deblock=1:2
Default                                  : Yes
Forced                                   : No

Audio
ID                                       : 2
Format                                   : DTS
Format/Info                              : Digital Theater Systems
Codec ID                                 : A_DTS
Duration                                 : 1h 58mn
Bit rate mode                            : Constant
Bit rate                                 : 1 510 Kbps
Channel(s)                               : 6 channels
Channel positions                        : Front: L C R, Side: L R, LFE
Sampling rate                            : 48.0 KHz
Bit depth                                : 24 bits
Compression mode                         : Lossy
Stream size                              : 1.25 GiB (12%)
Language                                 : English
Default                                  : Yes
Forced                                   : No

Text
ID                                       : 3
Format                                   : UTF-8
Codec ID                                 : S_TEXT/UTF8
Codec ID/Info                            : UTF-8 Plain Text
Language                                 : Dutch
Default                                  : Yes
Forced                                   : No

Menu
00:00:00.000                             : en:00:00:00.000
00:07:41.461                             : en:00:07:41.461
00:14:11.267                             : en:00:14:11.267
00:21:12.396                             : en:00:21:12.396
00:27:48.750                             : en:00:27:48.750
00:34:51.297                             : en:00:34:51.297
00:40:23.879                             : en:00:40:23.879
00:48:33.493                             : en:00:48:33.493
00:56:27.467                             : en:00:56:27.467
01:01:00.156                             : en:01:01:00.156
01:13:51.718                             : en:01:13:51.718
01:20:58.895                             : en:01:20:58.895
01:25:55.191                             : en:01:25:55.191
01:31:35.948                             : en:01:31:35.948
01:40:03.622                             : en:01:40:03.622
01:46:20.999                             : en:01:46:20.999

This movie is NOT working, can you tell me what is different between to two and the best way to fix it?

General
Unique ID                                : 211115511010459891652196694199201010928 (0x9ED35E51F355ABF893814445A55194F0)
Complete name                            : \\WDTVLIVEHUB\WDTVLiveHub\network_sync\Videos\Tower.Heist.2011.1080p\tower heist.mkv
Format                                   : Matroska
Format version                           : Version 2
File size                                : 7.95 GiB
Duration                                 : 1h 44mn
Overall bit rate                         : 10.9 Mbps
Encoded date                             : UTC 2012-02-17 05:36:14
Writing application                      : mkvmerge v5.3.0 ('I could have danced') built on Feb  9 2012 10:38:07
Writing library                          : libebml v1.2.3 + libmatroska v1.3.0

Video
ID                                       : 1
Format                                   : AVC
Format/Info                              : Advanced Video Codec
Format profile                           : High@L4.1
Format settings, CABAC                   : Yes
Format settings, ReFrames                : 5 frames
Codec ID                                 : V_MPEG4/ISO/AVC
Duration                                 : 1h 44mn
Bit rate                                 : 9 381 Kbps
Width                                    : 1 920 pixels
Height                                   : 800 pixels
Display aspect ratio                     : 2.40:1
Frame rate                               : 23.976 fps
Color space                              : YUV
Chroma subsampling                       : 4:2:0
Bit depth                                : 8 bits
Scan type                                : Progressive
Bits/(Pixel*Frame)                       : 0.255
Stream size                              : 6.69 GiB (84%)
Writing library                          : x264 core 120 r2164 da19765
Encoding settings                        : cabac=1 / ref=5 / deblock=1:0:0 / analyse=0x3:0x133 / me=umh / subme=7 / psy=1 / psy_rd=1.00:0.02 / mixed_ref=1 / me_range=24 / chroma_me=1 / trellis=2 / 8x8dct=1 / cqm=0 / deadzone=21,11 / fast_pskip=0 / chroma_qp_offset=-3 / threads=12 / sliced_threads=0 / nr=0 / decimate=1 / interlaced=0 / bluray_compat=0 / constrained_intra=0 / bframes=3 / b_pyramid=2 / b_adapt=2 / b_bias=0 / direct=1 / weightb=1 / open_gop=0 / weightp=2 / keyint=240 / keyint_min=23 / scenecut=40 / intra_refresh=0 / rc_lookahead=40 / rc=2pass / mbtree=1 / bitrate=9381 / ratetol=1.0 / qcomp=0.60 / qpmin=10 / qpmax=51 / qpstep=4 / cplxblur=20.0 / qblur=0.5 / ip_ratio=1.40 / aq=1:1.00
Language                                 : English
Default                                  : Yes
Forced                                   : No

Audio
ID                                       : 2
Format                                   : DTS
Format/Info                              : Digital Theater Systems
Codec ID                                 : A_DTS
Duration                                 : 1h 44mn
Bit rate mode                            : Constant
Bit rate                                 : 1 510 Kbps
Channel(s)                               : 6 channels
Channel positions                        : Front: L C R, Side: L R, LFE
Sampling rate                            : 48.0 KHz
Bit depth                                : 24 bits
Compression mode                         : Lossy
Stream size                              : 1.10 GiB (14%)
Language                                 : English
Default                                  : Yes
Forced                                   : No

Menu
00:00:00.000                             : en:00:00:00.000
00:03:23.203                             : en:00:03:23.203
00:09:20.810                             : en:00:09:20.810
00:14:09.599                             : en:00:14:09.599
00:19:13.778                             : en:00:19:13.778
00:23:41.503                             : en:00:23:41.503
00:27:16.468                             : en:00:27:16.468
00:32:05.549                             : en:00:32:05.549
00:38:16.377                             : en:00:38:16.377
00:43:57.260                             : en:00:43:57.260
00:49:20.541                             : en:00:49:20.541
00:53:42.594                             : en:00:53:42.594
00:56:58.582                             : en:00:56:58.582
01:01:46.995                             : en:01:01:46.995
01:06:22.687                             : en:01:06:22.687
01:11:30.161                             : en:01:11:30.161
01:17:13.504                             : en:01:17:13.504
01:23:09.568                             : en:01:23:09.568
01:31:52.257                             : en:01:31:52.257
01:38:42.125                             : en:01:38:42.125

To anyone who responds, thank you in advance for your help!