Author Topic: [SOLVED] Help with unsupported AVI files  (Read 1392 times)

April 25, 2012, 11:02:12 PM
Read 1392 times

mauromol

  • Newbie

  • Offline
  • *

  • 3
Hello all,
I have some AVI files that my WD TV Live does not read. Here is their description:

Code: [Select]
General
Complete name                            : MyFileName.avi
Format                                   : MPEG-PS
File size                                : 58.3 MiB
Duration                                 : 6mn 37s
Overall bit rate                         : 1 229 Kbps

Video
ID                                       : 224 (0xE0)
Format                                   : MPEG Video
Format version                           : Version 1
Format settings, BVOP                    : Yes
Format settings, Matrix                  : Default
Duration                                 : 6mn 37s
Bit rate                                 : 1 098 Kbps
Width                                    : 352 pixels
Height                                   : 240 pixels
Display aspect ratio                     : 4:3
Frame rate                               : 24.000 fps
Standard                                 : NTSC
Color space                              : YUV
Bit depth                                : 8 bits
Scan type                                : Progressive
Compression mode                         : Lossy
Bits/(Pixel*Frame)                       : 0.542
Stream size                              : 51.8 MiB (89%)

Audio
ID                                       : 192 (0xC0)
Format                                   : MPEG Audio
Format version                           : Version 1
Format profile                           : Layer 2
Mode                                     : Joint stereo
Duration                                 : 6mn 37s
Bit rate mode                            : Constant
Bit rate                                 : 112 Kbps
Channel(s)                               : 2 channels
Sampling rate                            : 44.1 KHz
Compression mode                         : Lossy
Delay relative to video                  : -83ms
Stream size                              : 5.31 MiB (9%)

This seems strange to me, since these files seem to be normal MPEG files in an AVI container. I'm quite confident that if I get to extract the MPEG stream out of the AVI container, my WD TV Live should be able to read them. The problem is to find a tool that lets me do this.

Any suggestion/help will be appreciated.

Thanks in advance,
Mauro.
« Last Edit: April 26, 2012, 09:16:37 PM by mauromol »

April 25, 2012, 11:32:16 PM
Reply #1

mauromol

  • Newbie

  • Offline
  • *

  • 3
Hmmm.. I'm starting to suspect that these AVI files are actually MPEG files with a wrong .AVI extension... I'll try to see if renaming is sufficient.

April 26, 2012, 09:16:08 PM
Reply #2

mauromol

  • Newbie

  • Offline
  • *

  • 3
The solution to my problem was just renaming those files from .avi to .mpg, since they actually are MPEGs.

April 27, 2012, 02:14:25 AM
Reply #3

RavRob

  • DeSpammer
  • Hero Member

  • Offline
  • ****

  • 1728
Tx for the follow up on this.
Glad you got it figured out
Windows 7 Ultimate with SP1
WDTV Live
1.02.21 WDLXTV 0.5.1.4 (Beta)
Linksys - WUSB600N USB Adapter
DLink - Dir-655 Router
Atheros - AR8131 PCI-E Gigabit Ethernet Controller (NDIS 6.20)
XBMC - The Future of Television